<?xml version="1.0" standalone="no"?>
<!DOCTYPE svg PUBLIC "-//W3C//DTD SVG 1.1//EN" "http://www.w3.org/Graphics/SVG/1.1/DTD/svg11.dtd" >
<svg xmlns="http://www.w3.org/2000/svg" xmlns:xlink="http://www.w3.org/1999/xlink" version="1.1">
<metadata>
Created by FontForge 20170731 at Wed Dec 13 04:00:40 2023
 By Aleksey,,,
Copyright (c) Mark Simonson, 2005. All rights reserved.
</metadata>
<defs>
<font id="ProximaNova-Regular" horiz-adv-x="794" >
  <font-face 
    font-family="Proxima Nova Rg"
    font-weight="400"
    font-stretch="normal"
    units-per-em="2048"
    panose-1="2 0 5 6 3 0 0 2 0 4"
    ascent="1618"
    descent="-430"
    x-height="989"
    cap-height="1366"
    bbox="-350 -557 2216 1823"
    underline-thickness="40"
    underline-position="-312"
    unicode-range="U+0020-FB04"
  />
<missing-glyph horiz-adv-x="1038" 
d="M879 -184h-719v1724h719v-1724zM813 -123v1602h-590v-1602h590z" />
    <glyph glyph-name="f_f_j" unicode="ffj" horiz-adv-x="1622" 
d="M350 0h-153v854h-164v135h164v76q0 151 77 236t209 85q129 0 209 -75l-63 -99q-55 48 -121 48q-77 0 -117.5 -50t-40.5 -145v-76h201v-135h-201v-854zM932 0h-154v854h-164v135h164v76q0 151 78.5 236t208.5 85q95 0 152 -32l-39 -117q-41 23 -88 23q-77 0 -117.5 -50
t-40.5 -145v-76h201v-135h-201v-854zM1393 1130q-43 0 -74 30t-31 73t31 73.5t74 30.5t72.5 -30.5t29.5 -73.5t-29.5 -73t-72.5 -30zM1176 -401q-72 0 -119.5 17t-95.5 56l53 115q61 -61 141 -61q73 0 116.5 44t43.5 134v1085h153v-1085q0 -147 -75 -226t-217 -79z" />
    <glyph glyph-name="f_j" unicode="fj" horiz-adv-x="1042" 
d="M350 0h-153v854h-164v135h164v76q0 151 78 236t208 85q95 0 152 -32l-39 -117q-41 23 -88 23q-77 0 -117.5 -50t-40.5 -145v-76h201v-135h-201v-854zM813 1130q-43 0 -73.5 30t-30.5 73t30.5 73.5t73.5 30.5t72.5 -30.5t29.5 -73.5t-29.5 -73t-72.5 -30zM596 -401
q-72 0 -119.5 17t-95.5 56l53 115q61 -61 141 -61q73 0 116.5 44t43.5 134v1085h154v-1085q0 -147 -75.5 -226t-217.5 -79z" />
    <glyph glyph-name="f_f" unicode="ff" horiz-adv-x="1161" 
d="M350 0h-153v854h-164v135h164v76q0 151 77 236t209 85q129 0 209 -75l-63 -99q-55 48 -121 48q-77 0 -117.5 -50t-40.5 -145v-76h201v-135h-201v-854zM932 0h-154v854h-164v135h164v76q0 151 77.5 236t209.5 85q129 0 209 -75l-64 -99q-55 48 -120 48q-77 0 -117.5 -50
t-40.5 -145v-76h201v-135h-201v-854z" />
    <glyph glyph-name="fi" unicode="fi" horiz-adv-x="1042" 
d="M350 0h-153v854h-164v135h164v76q0 151 78 236t208 85q95 0 152 -32l-39 -117q-41 23 -88 23q-77 0 -117.5 -50t-40.5 -145v-76h201v-135h-201v-854zM813 1130q-43 0 -73.5 30t-30.5 73t30.5 73.5t73.5 30.5t72.5 -30.5t29.5 -73.5t-29.5 -73t-72.5 -30zM889 0h-154v989
h154v-989z" />
    <glyph glyph-name="fl" unicode="fl" horiz-adv-x="1042" 
d="M350 0h-153v854h-164v135h164v76q0 151 78 236t208 85q95 0 152 -32l-39 -117q-41 23 -88 23q-77 0 -117.5 -50t-40.5 -145v-76h201v-135h-201v-854zM889 0h-154v1366h154v-1366z" />
    <glyph glyph-name="f_f_i" unicode="ffi" horiz-adv-x="1622" 
d="M350 0h-153v854h-164v135h164v76q0 151 77 236t209 85q129 0 209 -75l-63 -99q-55 48 -121 48q-77 0 -117.5 -50t-40.5 -145v-76h201v-135h-201v-854zM932 0h-154v854h-164v135h164v76q0 151 78.5 236t208.5 85q95 0 152 -32l-39 -117q-41 23 -88 23q-77 0 -117.5 -50
t-40.5 -145v-76h201v-135h-201v-854zM1393 1130q-43 0 -74 30t-31 73t31 73.5t74 30.5t72.5 -30.5t29.5 -73.5t-29.5 -73t-72.5 -30zM1468 0h-153v989h153v-989z" />
    <glyph glyph-name="f_f_l" unicode="ffl" horiz-adv-x="1622" 
d="M350 0h-153v854h-164v135h164v76q0 151 77 236t209 85q129 0 209 -75l-63 -99q-55 48 -121 48q-77 0 -117.5 -50t-40.5 -145v-76h201v-135h-201v-854zM932 0h-154v854h-164v135h164v76q0 151 78.5 236t208.5 85q95 0 152 -32l-39 -117q-41 23 -88 23q-77 0 -117.5 -50
t-40.5 -145v-76h201v-135h-201v-854zM1468 0h-153v1366h153v-1366z" />
    <glyph glyph-name="f_b" unicode="fb" horiz-adv-x="1759" 
d="M350 0h-153v854h-164v135h164v76q0 151 78 236t208 85q95 0 152 -32l-39 -117q-41 23 -88 23q-77 0 -117.5 -50t-40.5 -145v-76h201v-135h-201v-854zM889 268q41 -66 124 -110.5t173 -44.5q146 0 231.5 106.5t85.5 274.5t-85.5 275.5t-231.5 107.5q-89 0 -172.5 -46.5
t-124.5 -113.5v-449zM889 0h-154v1366h154v-526q60 82 147.5 128t186.5 46q196 0 318 -142t122 -378q0 -238 -122 -378.5t-318 -140.5q-101 0 -188.5 47t-145.5 125v-147z" />
    <glyph glyph-name="f_h" unicode="fh" horiz-adv-x="1712" 
d="M350 0h-153v854h-164v135h164v76q0 151 78 236t208 85q95 0 152 -32l-39 -117q-41 23 -88 23q-77 0 -117.5 -50t-40.5 -145v-76h201v-135h-201v-854zM1559 0h-154v651q0 125 -57 175.5t-166 50.5q-85 0 -165 -45t-126 -109v-723h-154v1366h154v-520q56 69 151.5 118.5
t200.5 49.5q316 0 316 -316v-698z" />
    <glyph glyph-name="f_k" unicode="fk" horiz-adv-x="1634" 
d="M350 0h-153v854h-164v135h164v76q0 151 78 236t208 85q95 0 152 -32l-39 -117q-41 23 -88 23q-77 0 -117.5 -50t-40.5 -145v-76h201v-135h-201v-854zM1606 0h-197l-354 444l-166 -161v-283h-154v1366h154v-903l520 526h195l-439 -448z" />
    <glyph glyph-name=".notdef" horiz-adv-x="1038" 
d="M879 -184h-719v1724h719v-1724zM813 -123v1602h-590v-1602h590z" />
    <glyph glyph-name=".null" horiz-adv-x="0" 
 />
    <glyph glyph-name="nonmarkingreturn" horiz-adv-x="682" 
 />
    <glyph glyph-name="space" unicode=" " horiz-adv-x="530" 
 />
    <glyph glyph-name="exclam" unicode="!" horiz-adv-x="471" 
d="M299 383h-127l-33 983h193zM236 -20q-46 0 -79.5 34t-33.5 78q0 46 33.5 79.5t79.5 33.5t79 -33.5t33 -79.5q0 -45 -33.5 -78.5t-78.5 -33.5z" />
    <glyph glyph-name="quotedbl" unicode="&#x22;" horiz-adv-x="704" 
d="M242 844h-76q-55 419 -55 448q0 38 27 66t65 28q39 0 66.5 -27.5t27.5 -66.5q0 -13 -13.5 -125t-27.5 -217zM539 844h-76q-55 419 -55 448q0 39 27.5 66.5t66.5 27.5q38 0 65 -28t27 -66q0 -13 -14 -125t-28 -217z" />
    <glyph glyph-name="numbersign" unicode="#" horiz-adv-x="1210" 
d="M614 0h-125l125 371h-227l-123 -371h-127l125 371h-217l35 108h219l135 408h-221l33 106h225l123 373h127l-123 -373h225l123 373h125l-125 -373h219l-30 -106h-224l-137 -408h227l-32 -108h-232zM649 479l137 408h-225l-137 -408h225z" />
    <glyph glyph-name="dollar" unicode="$" horiz-adv-x="1214" 
d="M555 -205v182q-149 9 -268 66.5t-199 149.5l102 131q64 -75 157 -127.5t208 -65.5v498q-54 15 -90 26t-84.5 30t-80.5 38t-67 48t-55.5 62t-33.5 77.5t-13 97.5q0 157 118.5 260.5t305.5 117.5v187h125v-189q244 -20 405 -188l-102 -125q-121 133 -303 158v-447
q54 -15 91.5 -27t86.5 -32t83 -41t69.5 -52t57 -66t35 -83t13.5 -104q0 -72 -24.5 -137.5t-74 -122.5t-136.5 -94.5t-201 -45.5v-182h-125zM940 365q0 48 -19.5 85.5t-58 64.5t-80.5 45t-102 36v-467q134 14 197 82.5t63 153.5zM307 1018q0 -41 18 -73t54.5 -56t77 -40.5
t98.5 -33.5v418q-109 -8 -178.5 -67t-69.5 -148z" />
    <glyph glyph-name="percent" unicode="%" horiz-adv-x="1499" 
d="M393 713q-145 0 -237.5 95.5t-92.5 238.5q0 147 92.5 243t237.5 96q146 0 238 -95.5t92 -243.5q0 -143 -92 -238.5t-238 -95.5zM375 0h-113l873 1366h114zM1106 -25q-145 0 -237.5 96t-92.5 240t92.5 241t237.5 97q144 0 236 -97t92 -241t-91.5 -240t-236.5 -96zM393 817
q91 0 149 66t58 164q0 102 -57.5 168.5t-149.5 66.5q-90 0 -148.5 -66.5t-58.5 -168.5q0 -98 58.5 -164t148.5 -66zM1106 80q91 0 149 66t58 165q0 101 -58 167.5t-149 66.5q-93 0 -151 -66.5t-58 -167.5q0 -100 58 -165.5t151 -65.5z" />
    <glyph glyph-name="ampersand" unicode="&#x26;" horiz-adv-x="1314" 
d="M1255 0h-213q-41 35 -149 143q-168 -168 -393 -168q-88 0 -164.5 24.5t-134.5 71t-91.5 120t-33.5 165.5q0 77 23.5 140.5t69 112.5t93.5 84t115 71q-105 179 -105 307q0 135 98.5 225t245.5 90q136 0 222 -71t86 -197q0 -43 -11.5 -81.5t-26.5 -68t-45.5 -60t-54 -50
t-67.5 -46t-69 -40t-75 -39.5q60 -80 160 -194q70 -85 162 -183q88 134 147 314l132 -60q-88 -213 -187 -352q127 -130 266 -258zM516 102q152 0 285 136q-141 149 -189 206q-103 119 -170 218q-97 -59 -149.5 -128t-52.5 -167q0 -122 80.5 -193.5t195.5 -71.5zM430 1067
q0 -96 82 -236q65 32 105 56t82.5 59t62.5 76t20 90q0 73 -45 114.5t-116 41.5q-80 0 -135.5 -56.5t-55.5 -144.5z" />
    <glyph glyph-name="quotesingle" unicode="'" horiz-adv-x="407" 
d="M242 844h-76q-55 419 -55 448q0 38 27 66t65 28q39 0 66.5 -27.5t27.5 -66.5q0 -13 -13.5 -125t-27.5 -217z" />
    <glyph glyph-name="parenleft" unicode="(" horiz-adv-x="507" 
d="M473 -336l-94 -72q-139 192 -214 426t-75 480t75 479.5t214 425.5l94 -70q-109 -213 -162 -403.5t-53 -431.5q0 -240 53 -431.5t162 -402.5z" />
    <glyph glyph-name="parenright" unicode=")" horiz-adv-x="507" 
d="M35 -336l94 -72q139 192 214 426t75 480t-75 479.5t-214 425.5l-94 -70q109 -213 162 -403.5t53 -431.5q0 -240 -53 -431.5t-162 -402.5z" />
    <glyph glyph-name="asterisk" unicode="*" horiz-adv-x="696" 
d="M395 797h-94l12 235l-198 -127l-45 80l209 107l-209 106l45 82l198 -129l-12 235h94l-12 -235l197 129l47 -82l-209 -106l209 -107l-47 -80l-197 127z" />
    <glyph glyph-name="plus" unicode="+" horiz-adv-x="1021" 
d="M963 637h-394v-436h-116v436h-394v106h394v424h116v-424h394v-106z" />
    <glyph glyph-name="comma" unicode="," horiz-adv-x="471" 
d="M360 49q0 -91 -46 -173.5t-119 -135.5l-78 63q51 33 89 87t44 104q-8 -4 -29 -4q-41 0 -69.5 30t-28.5 74q0 45 31.5 78t76.5 33q55 0 92 -42.5t37 -113.5z" />
    <glyph glyph-name="hyphen" unicode="-" horiz-adv-x="614" 
d="M553 428h-492v135h492v-135z" />
    <glyph glyph-name="period" unicode="." horiz-adv-x="473" 
d="M236 -20q-46 0 -79.5 33t-33.5 79t33.5 79.5t79.5 33.5t79 -33.5t33 -79.5t-33 -79t-79 -33z" />
    <glyph glyph-name="slash" unicode="/" horiz-adv-x="606" 
d="M121 -41h-121l485 1448h121z" />
    <glyph glyph-name="zero" unicode="0" horiz-adv-x="1253" 
d="M627 -25q-109 0 -198 42t-148.5 111t-100 162t-58.5 191t-18 201q0 104 18 202t58.5 190t100 160.5t148.5 110t198 41.5q108 0 197 -41.5t148.5 -110t100 -160.5t58.5 -190.5t18 -201.5t-18 -201.5t-58.5 -191t-100 -161.5t-148.5 -111t-197 -42zM627 127q93 0 163 47.5
t109 129t57.5 176t18.5 202.5q0 85 -11 162t-37 149.5t-65 125.5t-99.5 84.5t-135.5 31.5t-135.5 -31.5t-99.5 -84.5t-65 -125.5t-37 -149.5t-11 -162q0 -108 18.5 -202.5t57.5 -176t109 -129t163 -47.5z" />
    <glyph glyph-name="one" unicode="1" horiz-adv-x="694" 
d="M535 0h-170v1143l-220 -234l-102 105l342 352h150v-1366z" />
    <glyph glyph-name="two" unicode="2" horiz-adv-x="1204" 
d="M1049 0h-938v137q140 109 229 181.5t185 156t152 144t104 126t68.5 124t20.5 116.5q0 123 -84.5 186.5t-201.5 63.5q-119 0 -213.5 -46t-157.5 -126l-104 108q77 103 202.5 159t272.5 56q87 0 167.5 -25t146 -73t105 -126.5t39.5 -176.5q0 -82 -34 -166.5t-88 -159.5
t-145 -165.5t-179 -165t-217 -176.5h670v-152z" />
    <glyph glyph-name="three" unicode="3" horiz-adv-x="1140" 
d="M545 -25q-165 0 -291.5 63.5t-194.5 162.5l101 106q62 -82 162.5 -131t218.5 -49q148 0 233.5 69t85.5 187q0 123 -91 182.5t-249 59.5q-121 0 -141 -2v155q23 -2 141 -2q139 0 228.5 56.5t89.5 168.5q0 110 -87.5 172t-218.5 62q-110 0 -196.5 -41t-163.5 -125l-94 107
q78 96 197 153t272 57q202 0 331.5 -97t129.5 -265q0 -71 -27.5 -130t-72 -96.5t-93.5 -60t-100 -30.5q49 -5 101.5 -27.5t101.5 -62t80.5 -105t31.5 -143.5q0 -173 -131.5 -283.5t-353.5 -110.5z" />
    <glyph glyph-name="four" unicode="4" horiz-adv-x="1142" 
d="M885 0h-170v346h-649v141l585 879h234v-870h192v-150h-192v-346zM715 496v712l-479 -712h479z" />
    <glyph glyph-name="five" unicode="5" horiz-adv-x="1208" 
d="M616 -25q-315 0 -481 220l105 114q140 -182 376 -182q138 0 227 83.5t89 209.5q0 134 -87.5 214.5t-226.5 80.5q-182 0 -315 -127l-125 43v735h836v-152h-666v-475q55 54 139 88.5t181 34.5q87 0 165 -29t138.5 -82.5t96.5 -137.5t36 -187q0 -203 -139 -327t-349 -124z
" />
    <glyph glyph-name="six" unicode="6" horiz-adv-x="1210" 
d="M633 -25q-112 0 -202 38t-150 103t-100.5 156t-58.5 193t-18 217q0 113 20.5 215t65 192t109 155.5t158 103.5t205.5 38q236 0 376 -163l-86 -127q-58 68 -124.5 103.5t-165.5 35.5q-77 0 -142 -30t-109.5 -81.5t-75 -120.5t-45 -146t-14.5 -159v-53q51 81 158.5 147
t229.5 66q93 0 173.5 -27.5t141.5 -80.5t96 -137.5t35 -190.5q0 -89 -33.5 -169.5t-93.5 -142.5t-151 -98.5t-199 -36.5zM625 127q76 0 137.5 26.5t98.5 69.5t57 93t20 100q0 144 -87.5 219.5t-225.5 75.5q-101 0 -193 -56t-149 -147q4 -54 17.5 -105t40.5 -102t64.5 -89
t94 -61.5t125.5 -23.5z" />
    <glyph glyph-name="seven" unicode="7" horiz-adv-x="1054" 
d="M436 0h-188l551 1214h-736v152h932v-117z" />
    <glyph glyph-name="eight" unicode="8" horiz-adv-x="1191" 
d="M596 -25q-136 0 -246.5 43.5t-177 129t-66.5 198.5q0 129 94 223t232 136q-84 24 -149.5 64.5t-109.5 109t-44 153.5q0 89 40.5 158.5t108.5 111t149 63t169 21.5q87 0 168.5 -21.5t150 -63t109.5 -111t41 -158.5q0 -124 -86.5 -206.5t-218.5 -120.5
q138 -41 231.5 -135.5t93.5 -223.5q0 -168 -140.5 -269.5t-348.5 -101.5zM596 774q31 5 63.5 13.5t76.5 28t77 44t56.5 64t23.5 86.5q0 103 -85 164t-212 61q-128 0 -211.5 -61t-83.5 -164q0 -47 23.5 -86.5t56 -64t76.5 -44t76 -28t63 -13.5zM596 127q131 0 224 65.5
t93 172.5q0 51 -25 95t-62 72.5t-82.5 50.5t-82 32.5t-65.5 13.5q-29 -3 -65.5 -13.5t-82 -32.5t-82.5 -50.5t-62 -72.5t-25 -95q0 -107 92.5 -172.5t224.5 -65.5z" />
    <glyph glyph-name="nine" unicode="9" horiz-adv-x="1210" 
d="M551 -23q-232 0 -379 164l86 127q58 -68 126 -103.5t167 -35.5t175.5 46.5t121 125t66.5 171t22 194.5q0 35 -2 53q-51 -81 -158 -147t-227 -66q-126 0 -225.5 47t-161.5 147.5t-62 241.5q0 89 33.5 169.5t94 142.5t152 98.5t200.5 36.5q111 0 201 -38t150 -103
t100.5 -156t58.5 -193t18 -217q0 -113 -21 -215.5t-65.5 -192t-109 -155.5t-157 -104t-204.5 -38zM588 653q100 0 193 56.5t149 148.5q-5 54 -18.5 104.5t-41 101.5t-65 88.5t-94 61t-125.5 23.5q-75 0 -136.5 -26.5t-99.5 -69t-58 -92.5t-20 -101q0 -144 88.5 -219.5
t227.5 -75.5z" />
    <glyph glyph-name="colon" unicode=":" horiz-adv-x="460" 
d="M236 778q-45 0 -79 34t-34 79q0 46 33.5 79.5t79.5 33.5t79 -33.5t33 -79.5q0 -45 -33.5 -79t-78.5 -34zM236 -20q-46 0 -79.5 33t-33.5 79t33.5 79.5t79.5 33.5t79 -33.5t33 -79.5t-33 -79t-79 -33z" />
    <glyph glyph-name="semicolon" unicode=";" horiz-adv-x="471" 
d="M236 778q-45 0 -79 34t-34 79q0 46 33.5 79.5t79.5 33.5t79 -33.5t33 -79.5q0 -45 -33.5 -79t-78.5 -34zM360 53q0 -92 -45.5 -174t-119.5 -135l-78 61q50 33 88.5 88t44.5 105q-8 -4 -29 -4q-42 0 -70 29.5t-28 74.5t31.5 78t76.5 33q55 0 92 -42.5t37 -113.5z" />
    <glyph glyph-name="less" unicode="&#x3c;" horiz-adv-x="1021" 
d="M963 184l-904 447v108l904 449v-129l-773 -375l773 -371v-129z" />
    <glyph glyph-name="equal" unicode="=" horiz-adv-x="1021" 
d="M963 827h-904v109h904v-109zM963 432h-904v109h904v-109z" />
    <glyph glyph-name="greater" unicode="&#x3e;" horiz-adv-x="1021" 
d="M963 631l-904 -447v129l772 371l-772 375v129l904 -449v-108z" />
    <glyph glyph-name="question" unicode="?" horiz-adv-x="946" 
d="M416 379q-78 67 -78 168q0 53 20.5 97.5t53 77t71.5 61.5t78.5 56.5t72 56t53 66.5t20.5 82q0 81 -62.5 136t-177.5 55q-111 0 -189 -43t-139 -125l-102 111q75 99 188 153.5t256 54.5q183 0 292.5 -90.5t109.5 -226.5q0 -63 -22 -116t-57 -90.5t-77 -70.5t-84 -62
t-77 -57.5t-57 -64.5t-22 -76q0 -59 54 -98zM459 -20q-46 0 -79.5 33t-33.5 79t33.5 79.5t79.5 33.5t79 -33.5t33 -79.5t-33 -79t-79 -33z" />
    <glyph glyph-name="at" unicode="@" horiz-adv-x="1603" 
d="M721 -143q-183 0 -332 85t-233 232t-84 326q0 162 67.5 312t179 258t260.5 172.5t306 64.5q189 0 337.5 -88t228 -235.5t79.5 -326.5q0 -115 -31 -209t-82 -152.5t-113 -90t-128 -31.5q-82 0 -132 48.5t-55 117.5v14q-56 -80 -143 -130t-182 -50q-142 0 -228 92t-86 242
q0 104 41.5 200t108.5 164.5t154 109t177 40.5q95 0 163.5 -45t99.5 -115l26 127h140l-117 -555q-4 -24 -4 -43q0 -49 27.5 -77.5t68.5 -28.5q26 0 54 11t59 39t55 68.5t39.5 106.5t15.5 147q0 254 -160 417t-419 163q-145 0 -281.5 -61t-236 -161.5t-159 -235t-59.5 -275.5
q0 -162 75 -295t209.5 -209t301.5 -76q199 0 381 115l37 -53q-200 -129 -426 -129zM707 289q95 0 172.5 53.5t130.5 130.5l59 285q-21 58 -75 103.5t-136 45.5q-150 0 -255 -119t-105 -272q0 -101 55.5 -164t153.5 -63z" />
    <glyph glyph-name="A" unicode="A" horiz-adv-x="1347" 
d="M1329 0h-194l-121 305h-680l-121 -305h-195l551 1366h211zM965 455l-291 737l-289 -737h580z" />
    <glyph glyph-name="B" unicode="B" horiz-adv-x="1288" 
d="M782 0h-622v1366h608q176 0 279.5 -96t103.5 -252q0 -123 -70 -207t-170 -106q109 -17 188 -115.5t79 -220.5q0 -167 -105.5 -268t-290.5 -101zM739 774q112 0 174 61t62 158q0 96 -62 158.5t-174 62.5h-409v-440h409zM750 152q118 0 184.5 63t66.5 172q0 100 -66 168
t-185 68h-420v-471h420z" />
    <glyph glyph-name="C" unicode="C" horiz-adv-x="1384" 
d="M807 -25q-146 0 -275.5 52t-223.5 143.5t-149 224.5t-55 287t55 287t149 224.5t223.5 143.5t275.5 52q329 0 518 -271l-141 -80q-60 90 -161 144.5t-216 54.5q-226 0 -376 -155.5t-150 -399.5q0 -159 69 -286.5t189 -198t268 -70.5q114 0 215.5 55t161.5 144l143 -78
q-199 -273 -520 -273z" />
    <glyph glyph-name="D" unicode="D" horiz-adv-x="1433" 
d="M627 0h-467v1366h467q208 0 369 -90.5t246 -245.5t85 -348q0 -145 -50 -270.5t-140 -216.5t-221.5 -143t-288.5 -52zM627 152q161 0 282 72t181.5 191t60.5 267q0 150 -59.5 269t-180 191t-284.5 72h-297v-1062h297z" />
    <glyph glyph-name="E" unicode="E" horiz-adv-x="1165" 
d="M1055 0h-895v1366h895v-152h-725v-440h710v-151h-710v-471h725v-152z" />
    <glyph glyph-name="F" unicode="F" horiz-adv-x="1128" 
d="M330 0h-170v1366h895v-152h-725v-440h710v-151h-710v-623z" />
    <glyph glyph-name="G" unicode="G" horiz-adv-x="1460" 
d="M807 -27q-145 0 -274 51.5t-223.5 143t-150 225t-55.5 289.5t55.5 289.5t150 224.5t223.5 142t274 51q324 0 530 -254l-135 -86q-66 86 -170.5 137t-224.5 51q-226 0 -376 -155.5t-150 -399.5q0 -159 69 -286.5t189 -198t268 -70.5q113 0 211 43.5t158 103.5v277h-471
v151h638v-491q-99 -111 -236.5 -174.5t-299.5 -63.5z" />
    <glyph glyph-name="H" unicode="H" horiz-adv-x="1458" 
d="M1298 0h-170v627h-798v-627h-170v1366h170v-588h798v588h170v-1366z" />
    <glyph glyph-name="I" unicode="I" horiz-adv-x="489" 
d="M330 0h-170v1366h170v-1366z" />
    <glyph glyph-name="J" unicode="J" horiz-adv-x="972" 
d="M379 -25q-222 0 -356 158l90 129q107 -135 256 -135q125 0 199.5 79t74.5 208v952h170v-954q0 -143 -58.5 -243.5t-154.5 -147t-221 -46.5z" />
    <glyph glyph-name="K" unicode="K" horiz-adv-x="1230" 
d="M1198 0h-213l-518 614l-137 -155v-459h-170v1366h170v-704l604 704h213l-569 -647z" />
    <glyph glyph-name="L" unicode="L" horiz-adv-x="1009" 
d="M942 0h-805v1366h170v-1214h635v-152z" />
    <glyph glyph-name="M" unicode="M" horiz-adv-x="1656" 
d="M1497 0h-170v1149l-463 -1149h-69l-465 1149v-1149h-170v1366h243l426 -1053l424 1053h244v-1366z" />
    <glyph glyph-name="N" unicode="N" horiz-adv-x="1449" 
d="M1290 0h-164l-796 1090v-1090h-170v1366h174l786 -1067v1067h170v-1366z" />
    <glyph glyph-name="O" unicode="O" horiz-adv-x="1566" 
d="M782 -25q-198 0 -353.5 92.5t-240 253.5t-84.5 361t84.5 361t240 253.5t353.5 92.5t354 -92.5t241 -253.5t85 -361t-85 -361t-241 -253.5t-354 -92.5zM782 127q150 0 265.5 72.5t177 198.5t61.5 284q0 242 -139 398.5t-365 156.5q-227 0 -364 -156t-137 -399
q0 -158 60.5 -284t175.5 -198.5t265 -72.5z" />
    <glyph glyph-name="P" unicode="P" horiz-adv-x="1202" 
d="M330 0h-170v1366h549q198 0 313 -118.5t115 -293.5q0 -174 -115.5 -292.5t-312.5 -118.5h-379v-543zM688 694q121 0 197 72t76 188t-76 188t-197 72h-358v-520h358z" />
    <glyph glyph-name="Q" unicode="Q" horiz-adv-x="1566" 
d="M782 -25q-198 0 -353.5 92.5t-240 253.5t-84.5 361t84.5 361t240 253.5t353.5 92.5t354 -92.5t241 -253.5t85 -361q0 -305 -188 -506l129 -137l-117 -102l-133 141q-159 -103 -371 -103zM782 127q145 0 260 70l-194 211l119 100l192 -209q127 156 127 383
q0 242 -139 398.5t-365 156.5q-227 0 -364 -156t-137 -399q0 -158 60.5 -284t175.5 -198.5t265 -72.5z" />
    <glyph glyph-name="R" unicode="R" horiz-adv-x="1247" 
d="M1151 0h-201l-346 543h-274v-543h-170v1366h549q190 0 310 -112.5t120 -299.5q0 -89 -29.5 -163t-79.5 -122.5t-113.5 -77t-134.5 -34.5zM688 692q121 0 198 73t77 189t-76.5 188t-198.5 72h-358v-522h358z" />
    <glyph glyph-name="S" unicode="S" horiz-adv-x="1200" 
d="M602 -25q-169 0 -301.5 58.5t-222.5 159.5l102 131q74 -86 183.5 -141.5t244.5 -55.5q87 0 152.5 22t101 58t52 75.5t16.5 82.5q0 56 -27.5 98.5t-74.5 69t-107.5 47t-127.5 38.5t-134.5 37t-128 48t-107.5 67.5t-74.5 99t-27.5 138.5q0 168 133.5 274.5t337.5 106.5
q300 0 483 -193l-102 -125q-145 164 -395 164q-122 0 -201.5 -60.5t-79.5 -156.5q0 -49 27.5 -86t74.5 -60.5t107.5 -42.5t128 -37t134.5 -38.5t127.5 -52t107.5 -73t74.5 -105.5t27.5 -146q0 -78 -28 -147t-85 -127.5t-157.5 -93t-233.5 -34.5z" />
    <glyph glyph-name="T" unicode="T" horiz-adv-x="1167" 
d="M668 0h-170v1214h-432v152h1036v-152h-434v-1214z" />
    <glyph glyph-name="U" unicode="U" horiz-adv-x="1435" 
d="M717 -25q-271 0 -414 148.5t-143 406.5v836h172v-831q0 -191 99.5 -299.5t285.5 -108.5t286.5 109t100.5 299v831h172v-834q0 -261 -143 -409t-416 -148z" />
    <glyph glyph-name="V" unicode="V" horiz-adv-x="1347" 
d="M780 0h-211l-551 1366h195l461 -1180l461 1180h194z" />
    <glyph glyph-name="W" unicode="W" horiz-adv-x="1808" 
d="M1389 0h-185l-301 1102l-301 -1102h-184l-389 1366h188l303 -1139l314 1139h141l313 -1139l301 1139h191z" />
    <glyph glyph-name="X" unicode="X" horiz-adv-x="1335" 
d="M1311 0h-207l-436 582l-437 -582h-206l532 700l-502 666h207l406 -545l403 545h209l-502 -664z" />
    <glyph glyph-name="Y" unicode="Y" horiz-adv-x="1282" 
d="M727 0h-170v578l-539 788h199l424 -635l424 635h199l-537 -788v-578z" />
    <glyph glyph-name="Z" unicode="Z" horiz-adv-x="1198" 
d="M1100 0h-1002v141l768 1073h-768v152h987v-141l-770 -1073h785v-152z" />
    <glyph glyph-name="bracketleft" unicode="[" horiz-adv-x="497" 
d="M463 -389h-381v1778h381v-113h-260v-1552h260v-113z" />
    <glyph glyph-name="backslash" unicode="\" horiz-adv-x="606" 
d="M485 -41l-485 1448h121l485 -1448h-121z" />
    <glyph glyph-name="bracketright" unicode="]" horiz-adv-x="497" 
d="M418 -389h-383v113h262v1552h-262v113h383v-1778z" />
    <glyph glyph-name="asciicircum" unicode="^" horiz-adv-x="884" 
d="M846 682h-127l-277 571l-276 -571h-127l346 684h117z" />
    <glyph glyph-name="underscore" unicode="_" horiz-adv-x="1155" 
d="M1161 -195h-1167v113h1167v-113z" />
    <glyph glyph-name="grave" unicode="`" horiz-adv-x="462" 
d="M463 1139h-117l-346 295h160z" />
    <glyph glyph-name="grave" unicode="&#x2cb;" horiz-adv-x="462" 
d="M463 1139h-117l-346 295h160z" />
    <glyph glyph-name="a" unicode="a" horiz-adv-x="1081" 
d="M926 0h-154v113q-123 -138 -328 -138q-63 0 -123.5 21.5t-110.5 61.5t-80 103.5t-30 141.5q0 80 30 144.5t79.5 103t109.5 58.5t125 20q210 0 328 -133v178q0 96 -70 151.5t-180 55.5q-176 0 -303 -138l-72 107q157 164 396 164q82 0 149.5 -19t120.5 -57.5t83 -104.5
t30 -153v-680zM502 86q82 0 154.5 31.5t115.5 91.5v188q-43 58 -115.5 89.5t-154.5 31.5q-108 0 -177 -60.5t-69 -154.5q0 -95 68.5 -156t177.5 -61z" />
    <glyph glyph-name="b" unicode="b" horiz-adv-x="1177" 
d="M307 268q41 -66 124 -110.5t173 -44.5q146 0 232 106.5t86 274.5t-86 275.5t-232 107.5q-89 0 -172.5 -46.5t-124.5 -113.5v-449zM307 0h-153v1366h153v-526q60 82 147.5 128t186.5 46q196 0 318 -142t122 -378q0 -238 -122 -378.5t-318 -140.5q-101 0 -188.5 47
t-145.5 125v-147z" />
    <glyph glyph-name="c" unicode="c" horiz-adv-x="1015" 
d="M590 -25q-218 0 -356 149t-138 372q0 146 61.5 263.5t174.5 186t258 68.5q229 0 362 -172l-102 -92q-93 127 -252 127q-155 0 -248.5 -107t-93.5 -274t94 -275t248 -108q155 0 252 129l102 -95q-133 -172 -362 -172z" />
    <glyph glyph-name="d" unicode="d" horiz-adv-x="1177" 
d="M1024 0h-154v147q-58 -78 -145 -125t-188 -47q-196 0 -318.5 140.5t-122.5 378.5q0 235 123 377.5t318 142.5q99 0 185.5 -46t147.5 -128v526h154v-1366zM575 113q89 0 171.5 45.5t123.5 111.5v447q-41 67 -124 113.5t-171 46.5q-147 0 -233 -107.5t-86 -275.5
t85.5 -274.5t233.5 -106.5z" />
    <glyph glyph-name="e" unicode="e" horiz-adv-x="1153" 
d="M602 -25q-222 0 -364 145t-142 376q0 142 62.5 260.5t174.5 188t251 69.5q146 0 255 -71t164.5 -190.5t55.5 -269.5v-39h-799q9 -146 104.5 -244t249.5 -98q87 0 167.5 33t140.5 94l73 -100q-157 -154 -393 -154zM907 559q-1 57 -20.5 113t-57.5 105t-102 79.5t-145 30.5
q-76 0 -138 -30t-100.5 -78.5t-60.5 -105t-25 -114.5h649z" />
    <glyph glyph-name="f" unicode="f" horiz-adv-x="581" 
d="M350 0h-153v854h-164v135h164v76q0 151 77 236t209 85q129 0 209 -75l-63 -99q-55 48 -121 48q-77 0 -117.5 -50t-40.5 -145v-76h201v-135h-201v-854z" />
    <glyph glyph-name="g" unicode="g" horiz-adv-x="1177" 
d="M551 -401q-130 0 -221.5 32t-177.5 117l77 111q61 -71 137.5 -102t184.5 -31q136 0 227.5 71t91.5 217v150q-58 -79 -145.5 -127.5t-187.5 -48.5q-197 0 -319 138t-122 374q0 235 122 374.5t319 139.5q99 0 185.5 -46t147.5 -128v149h154v-975q0 -113 -39 -196
t-107.5 -129.5t-149.5 -68t-177 -21.5zM575 125q88 0 170 46.5t125 113.5v434q-43 66 -125.5 112t-169.5 46q-148 0 -233.5 -104.5t-85.5 -272.5q0 -166 85.5 -270.5t233.5 -104.5z" />
    <glyph glyph-name="h" unicode="h" horiz-adv-x="1130" 
d="M977 0h-154v651q0 125 -57 175.5t-166 50.5q-85 0 -165 -45t-126 -109v-723h-153v1366h153v-520q56 69 151.5 118.5t201.5 49.5q315 0 315 -316v-698z" />
    <glyph glyph-name="i" unicode="i" horiz-adv-x="460" 
d="M231 1130q-43 0 -73.5 30t-30.5 73t30.5 73.5t73.5 30.5t73 -30.5t30 -73.5t-30 -73t-73 -30zM307 0h-153v989h153v-989z" />
    <glyph glyph-name="j" unicode="j" horiz-adv-x="460" 
d="M231 1130q-43 0 -73.5 30t-30.5 73t30.5 73.5t73.5 30.5t73 -30.5t30 -73.5t-30 -73t-73 -30zM14 -401q-72 0 -119.5 17t-95.5 56l54 115q61 -61 141 -61q73 0 116.5 44t43.5 134v1085h153v-1085q0 -147 -75.5 -226t-217.5 -79z" />
    <glyph glyph-name="k" unicode="k" horiz-adv-x="1052" 
d="M1024 0h-197l-354 444l-166 -161v-283h-153v1366h153v-903l520 526h195l-438 -448z" />
    <glyph glyph-name="l" unicode="l" horiz-adv-x="460" 
d="M307 0h-153v1366h153v-1366z" />
    <glyph glyph-name="m" unicode="m" horiz-adv-x="1654" 
d="M1501 0h-153v672q0 205 -183 205q-74 0 -148 -44.5t-114 -107.5v-725h-153v672q0 205 -183 205q-72 0 -145 -45.5t-115 -108.5v-723h-153v989h153v-143q40 58 131 113t191 55q107 0 174 -51.5t90 -133.5q45 73 138 129t194 56q136 0 206 -75t70 -224v-715z" />
    <glyph glyph-name="n" unicode="n" horiz-adv-x="1130" 
d="M975 0h-152v647q0 125 -58 177.5t-165 52.5q-86 0 -165.5 -45t-127.5 -109v-723h-153v989h153v-143q58 69 154 118.5t201 49.5q313 0 313 -320v-694z" />
    <glyph glyph-name="o" unicode="o" horiz-adv-x="1171" 
d="M586 -25q-147 0 -259.5 70.5t-171.5 188.5t-59 262t59 261t171.5 187t259.5 70t259.5 -70t171 -187t58.5 -261t-58.5 -262t-171 -188.5t-259.5 -70.5zM586 113q102 0 177.5 54t112.5 139.5t37 189.5q0 103 -37 188t-112.5 139t-177.5 54t-178 -54t-113 -139.5t-37 -187.5
q0 -160 88 -271.5t240 -111.5z" />
    <glyph glyph-name="p" unicode="p" horiz-adv-x="1171" 
d="M641 -25q-100 0 -185.5 46t-148.5 129v-527h-153v1366h153v-147q56 78 144.5 125t189.5 47q197 0 318.5 -139.5t121.5 -378.5q0 -237 -121.5 -379t-318.5 -142zM602 113q146 0 232 107.5t86 275.5t-86 274.5t-232 106.5q-88 0 -171 -46t-124 -112v-447q41 -67 124 -113
t171 -46z" />
    <glyph glyph-name="q" unicode="q" horiz-adv-x="1171" 
d="M569 113q88 0 171 46t124 113v447q-41 66 -124 112t-171 46q-146 0 -231.5 -106.5t-85.5 -274.5t85.5 -275.5t231.5 -107.5zM530 -25q-197 0 -318.5 142t-121.5 379q0 239 121.5 378.5t318.5 139.5q101 0 189.5 -47t144.5 -125v147h154v-1366h-154v527
q-63 -83 -148.5 -129t-185.5 -46z" />
    <glyph glyph-name="r" unicode="r" horiz-adv-x="675" 
d="M307 0h-153v989h153v-158q64 82 149 131.5t181 49.5v-158q-36 4 -59 4q-71 0 -154 -48.5t-117 -109.5v-700z" />
    <glyph glyph-name="s" unicode="s" horiz-adv-x="952" 
d="M469 -25q-249 0 -399 156l77 111q53 -60 141 -101t185 -41q111 0 173.5 47t62.5 123q0 48 -34 81t-88 51t-119 33t-130.5 35t-119.5 49t-88 82.5t-34 127.5q0 122 98 203.5t269 81.5q226 0 366 -144l-71 -106q-46 56 -123.5 90.5t-171.5 34.5q-99 0 -159 -44.5
t-60 -111.5q0 -43 34 -72.5t87.5 -46t119 -31t131 -35.5t119 -51.5t87.5 -87.5t34 -135q0 -130 -101.5 -214.5t-285.5 -84.5z" />
    <glyph glyph-name="t" unicode="t" horiz-adv-x="602" 
d="M406 -25q-109 0 -165.5 60.5t-56.5 171.5v647h-164v135h164v271h156v-271h201v-135h-201v-614q0 -58 25 -92.5t73 -34.5q68 0 105 43l45 -117q-67 -64 -182 -64z" />
    <glyph glyph-name="u" unicode="u" horiz-adv-x="1128" 
d="M975 0h-154v139q-62 -70 -155 -117t-197 -47q-315 0 -315 316v698h153v-651q0 -124 57 -174.5t166 -50.5q86 0 166 43t125 106v727h154v-989z" />
    <glyph glyph-name="v" unicode="v" horiz-adv-x="1003" 
d="M586 0h-168l-412 989h168l328 -811l329 811h166z" />
    <glyph glyph-name="w" unicode="w" horiz-adv-x="1503" 
d="M1165 0h-155l-258 795l-258 -795h-154l-315 989h159l242 -788l260 788h133l258 -788l242 788h162z" />
    <glyph glyph-name="x" unicode="x" horiz-adv-x="997" 
d="M973 0h-176l-299 406l-297 -406h-176l378 508l-358 481h178l275 -377l276 377h176l-358 -481z" />
    <glyph glyph-name="y" unicode="y" horiz-adv-x="1003" 
d="M100 -387l23 139q37 -16 84 -16q54 0 88 22.5t59 81.5l66 150l-414 999h168l328 -811l329 811h166l-495 -1190q-81 -197 -291 -200q-64 0 -111 14z" />
    <glyph glyph-name="z" unicode="z" horiz-adv-x="966" 
d="M860 0h-754v121l545 733h-545v135h746v-117l-549 -737h557v-135z" />
    <glyph glyph-name="braceleft" unicode="{" horiz-adv-x="534" 
d="M500 -389h-127q-102 0 -178 76.5t-76 197.5v422q0 61 -28 101.5t-81 40.5v102q53 0 81 40t28 101v420q0 123 76 200t178 77h127v-113h-127q-55 0 -95 -46t-40 -116v-434q0 -140 -93 -180q93 -40 93 -181v-432q0 -69 40 -116t95 -47h127v-113z" />
    <glyph glyph-name="bar" unicode="|" horiz-adv-x="432" 
d="M272 -41h-112v1448h112v-1448z" />
    <glyph glyph-name="braceright" unicode="}" horiz-adv-x="534" 
d="M35 -389v113h125q56 0 96.5 47t40.5 116v432q0 142 92 181q-92 39 -92 180v434q0 71 -40 116.5t-97 45.5h-125v113h125q103 0 179.5 -77t76.5 -200v-420q0 -61 27.5 -101t78.5 -40v-102q-51 0 -78.5 -40.5t-27.5 -101.5v-422q0 -121 -76.5 -197.5t-179.5 -76.5h-125z" />
    <glyph glyph-name="asciitilde" unicode="~" horiz-adv-x="1030" 
d="M860 1366l113 -12q-8 -82 -18.5 -146.5t-32 -131.5t-50.5 -110.5t-75 -71.5t-105 -28q-60 0 -104.5 29t-66.5 72t-42.5 93.5t-35 93.5t-41.5 72t-64 29t-65 -28t-48 -82t-33 -122.5t-22 -158.5l-115 15q8 81 19 146.5t32.5 131t51.5 109t76 71t104 27.5q52 0 92 -21.5
t63.5 -56t41.5 -76.5t32 -83.5t29.5 -76t39.5 -56t56 -21.5q71 0 110 102t58 291z" />
    <glyph glyph-name="nbspace" unicode="&#xa0;" horiz-adv-x="530" 
 />
    <glyph glyph-name="exclamdown" unicode="&#xa1;" horiz-adv-x="471" 
d="M139 -377l31 983h129l33 -983h-193zM123 897q0 46 33.5 79.5t79.5 33.5q45 0 77.5 -33.5t32.5 -79.5q0 -45 -32.5 -78t-77.5 -33q-46 0 -79.5 33.5t-33.5 77.5z" />
    <glyph glyph-name="cent" unicode="&#xa2;" horiz-adv-x="1015" 
d="M516 -205v187q-189 25 -304.5 168t-115.5 346q0 201 115.5 343.5t304.5 168.5v149h121v-145q192 -15 315 -170l-102 -92q-81 111 -213 124v-759q129 12 213 127l102 -95q-120 -155 -315 -170v-182h-121zM256 496q0 -144 69.5 -245.5t190.5 -129.5v747q-120 -28 -190 -129
t-70 -243z" />
    <glyph glyph-name="sterling" unicode="&#xa3;" horiz-adv-x="1060" 
d="M41 549v110h215q-77 89 -102 129q-56 92 -56 195q0 111 62.5 204t168 146t228.5 53q140 0 248.5 -60t165.5 -169l-137 -82q-28 70 -99.5 119t-161.5 49q-122 0 -206 -71.5t-84 -190.5q0 -43 9 -80.5t29 -72t36.5 -57.5t46 -58.5t42.5 -53.5h308v-110h-250q14 -47 14 -88
q0 -161 -156 -271q59 19 107 19q67 0 157 -42t146 -42q63 0 117.5 25.5t77.5 56.5l73 -137q-101 -97 -276 -97q-62 0 -113.5 15t-81.5 32.5t-75.5 32.5t-96.5 15q-84 0 -241 -82l-60 129q130 57 200.5 138t70.5 173q0 59 -31 123h-295z" />
    <glyph glyph-name="currency" unicode="&#xa4;" horiz-adv-x="1069" 
d="M995 281l-59 -60l-115 117q-124 -105 -286 -105q-163 0 -287 105l-117 -117l-57 60l114 114q-102 127 -102 287q0 163 102 287l-114 116l57 58l117 -115q120 102 287 102q162 0 286 -102l115 115l59 -58l-114 -116q102 -124 102 -287q0 -160 -102 -287zM885 682
q0 146 -102.5 248t-247.5 102t-248 -102t-103 -248q0 -145 103 -247.5t248 -102.5t247.5 102.5t102.5 247.5z" />
    <glyph glyph-name="yen" unicode="&#xa5;" horiz-adv-x="1282" 
d="M727 0h-170v250h-512v108h512v220h-512v106h438l-465 682h199l424 -635l424 635h199l-465 -682h440v-106h-512v-220h512v-108h-512v-250z" />
    <glyph glyph-name="brokenbar" unicode="&#xa6;" horiz-adv-x="432" 
d="M272 -41h-112v647h112v-647zM272 760h-112v647h112v-647z" />
    <glyph glyph-name="section" unicode="&#xa7;" horiz-adv-x="958" 
d="M856 645q0 -86 -48 -153.5t-140 -106.5q92 -36 140 -95.5t48 -154.5q0 -140 -107 -220.5t-280 -80.5q-139 0 -230.5 42.5t-168.5 117.5l77 100q51 -62 135 -103.5t187 -41.5q107 0 173.5 47t66.5 129q0 51 -34 86t-88 54.5t-119 35.5t-130.5 36.5t-119.5 49t-88 82
t-34 127.5q0 101 66.5 167t167.5 93q-113 36 -173.5 96t-60.5 158q0 117 99.5 196.5t267.5 79.5q236 0 366 -145l-71 -92q-50 61 -127.5 92t-161.5 31q-101 0 -163 -45t-62 -119q0 -36 21 -63t56.5 -43.5t81.5 -29.5t96.5 -25t101 -26t96.5 -36t81.5 -52.5t56.5 -78
t21 -109.5zM705 627q0 42 -19 73.5t-56 53t-71.5 34t-85.5 25.5q-126 -32 -177.5 -82t-51.5 -121q0 -53 43.5 -90.5t86 -51.5t134.5 -37q18 -5 27 -7q85 37 127.5 85t42.5 118z" />
    <glyph glyph-name="dieresis" unicode="&#xa8;" horiz-adv-x="557" 
d="M586 1237q0 -38 -28.5 -66t-68.5 -28q-38 0 -66 28t-28 66q0 39 27.5 66.5t66.5 27.5q40 0 68.5 -27.5t28.5 -66.5zM162 1237q0 -38 -28 -66t-66 -28q-40 0 -68.5 28t-28.5 66q0 39 28.5 66.5t68.5 27.5q39 0 66.5 -27.5t27.5 -66.5z" />
    <glyph glyph-name="copyright" unicode="&#xa9;" horiz-adv-x="1593" 
d="M1503 684q0 -143 -56 -274t-150 -226t-225 -151t-275 -56q-191 0 -354 95t-258 258t-95 354q0 192 95 355t258 257.5t354 94.5q144 0 275 -56t225 -150.5t150 -225.5t56 -275zM1440 684q0 174 -86.5 322t-234.5 234.5t-322 86.5q-130 0 -248.5 -51t-205 -137t-138 -205.5
t-51.5 -249.5t51.5 -249t137.5 -205t205 -137.5t249 -51.5t249.5 51.5t205.5 138t137 205t51 248.5zM1049 434l53 -51q-116 -135 -301 -135q-178 0 -302 127t-124 313t123.5 310t302.5 124q185 0 299 -133l-51 -51q-39 54 -107 85.5t-141 31.5q-143 0 -246.5 -104
t-103.5 -265q0 -158 104.5 -264.5t245.5 -106.5q73 0 140.5 32.5t107.5 86.5z" />
    <glyph glyph-name="ordfeminine" unicode="&#xaa;" horiz-adv-x="774" 
d="M651 668h-116v71q-85 -88 -222 -88q-91 0 -160 58t-69 155q0 100 68.5 155.5t160.5 55.5q139 0 222 -86v113q0 61 -47.5 97t-116.5 36q-123 0 -201 -94l-53 78q105 108 268 108q117 0 191.5 -55t74.5 -172v-432zM358 729q53 0 100.5 21t76.5 57v115q-29 36 -76.5 56.5
t-100.5 20.5q-68 0 -111.5 -37.5t-43.5 -97.5q0 -61 43.5 -98t111.5 -37z" />
    <glyph glyph-name="guillemotleft" unicode="&#xab;" horiz-adv-x="899" 
d="M838 129h-154l-328 369l328 362h154l-328 -362zM543 129h-154l-328 369l328 362h154l-328 -362z" />
    <glyph glyph-name="logicalnot" unicode="&#xac;" horiz-adv-x="1032" 
d="M963 936v-504h-113v395h-791v109h904z" />
    <glyph glyph-name="registered" unicode="&#xae;" horiz-adv-x="1011" 
d="M940 952q0 -180 -126.5 -307t-307.5 -127q-180 0 -307 127t-127 307q0 181 127 307.5t307 126.5q119 0 219 -57.5t157.5 -157.5t57.5 -219zM881 952q0 158 -109.5 266.5t-265.5 108.5t-265.5 -108.5t-109.5 -266.5q0 -154 110 -264t265 -110t265 110t110 264zM707 702
h-82l-129 197h-90v-197h-66v498h203q65 0 111 -42t46 -109q0 -72 -46 -110t-81 -38zM633 1049q0 40 -28 67t-62 27h-137v-185h137q34 0 62 27t28 64z" />
    <glyph glyph-name="macron" unicode="&#xaf;" horiz-adv-x="743" 
d="M743 1210h-743v99h743v-99z" />
    <glyph glyph-name="macron" unicode="&#x203e;" horiz-adv-x="743" 
d="M743 1210h-743v99h743v-99z" />
    <glyph glyph-name="degree" unicode="&#xb0;" horiz-adv-x="593" 
d="M547 1137q0 -104 -73.5 -177t-176.5 -73q-104 0 -177 73t-73 177q0 103 73 176t177 73q103 0 176.5 -73t73.5 -176zM449 1137q0 61 -45 106t-107 45q-63 0 -106.5 -44.5t-43.5 -106.5q0 -63 43.5 -106.5t106.5 -43.5q62 0 107 44t45 106z" />
    <glyph glyph-name="plusminus" unicode="&#xb1;" horiz-adv-x="1021" 
d="M963 664h-394v-437h-116v437h-394v106h394v424h116v-424h394v-106zM963 0h-904v109h904v-109z" />
    <glyph glyph-name="twosuperior" unicode="&#xb2;" 
d="M698 862h-596v92q256 184 362.5 290t106.5 200q0 73 -51 111t-123 38t-133.5 -30.5t-95.5 -75.5l-68 78q49 62 130 95.5t171 33.5q78 0 142.5 -24.5t107.5 -81t43 -136.5q0 -60 -28.5 -119.5t-87.5 -122t-127 -118.5t-168 -129h415v-101z" />
    <glyph glyph-name="threesuperior" unicode="&#xb3;" 
d="M702 1085q0 -106 -83 -171.5t-226 -65.5q-104 0 -184.5 37t-122.5 96l68 78q40 -51 103.5 -81t133.5 -30q87 0 138 39t51 105q0 74 -58 107.5t-155 33.5q-70 0 -82 -2v102q14 -2 82 -2q91 0 145.5 31.5t54.5 99.5q0 62 -52.5 96.5t-131.5 34.5q-132 0 -223 -98l-64 72
q111 127 299 127q131 0 212 -59.5t81 -159.5q0 -82 -55.5 -130t-126.5 -59q31 -3 63.5 -16.5t63 -37t50 -62t19.5 -85.5z" />
    <glyph glyph-name="acute" unicode="&#xb4;" horiz-adv-x="462" 
d="M463 1434l-346 -295h-117l303 295h160z" />
    <glyph glyph-name="mu" unicode="&#xb5;" horiz-adv-x="1128" 
d="M307 -377h-153v1366h153v-651q0 -124 57.5 -176.5t165.5 -52.5q85 0 165.5 44.5t125.5 108.5v727h154v-989h-154v139q-62 -70 -155 -117t-197 -47q-93 0 -162 29v-381z" />
    <glyph glyph-name="mu" unicode="&#x3bc;" horiz-adv-x="1128" 
d="M307 -377h-153v1366h153v-651q0 -124 57.5 -176.5t165.5 -52.5q85 0 165.5 44.5t125.5 108.5v727h154v-989h-154v139q-62 -70 -155 -117t-197 -47q-93 0 -162 29v-381z" />
    <glyph glyph-name="paragraph" unicode="&#xb6;" horiz-adv-x="919" 
d="M774 -205h-92v1479h-182v-1479h-92v867q-146 0 -249.5 103t-103.5 249t103.5 249t249.5 103h366v-1571z" />
    <glyph glyph-name="periodcentered" unicode="&#xb7;" horiz-adv-x="473" 
d="M348 502q0 -46 -33 -79.5t-79 -33.5t-79.5 33.5t-33.5 79.5q0 44 33.5 77t79.5 33t79 -33t33 -77z" />
    <glyph glyph-name="periodcentered" unicode="&#x2219;" horiz-adv-x="473" 
d="M348 502q0 -46 -33 -79.5t-79 -33.5t-79.5 33.5t-33.5 79.5q0 44 33.5 77t79.5 33t79 -33t33 -77z" />
    <glyph glyph-name="cedilla" unicode="&#xb8;" horiz-adv-x="419" 
d="M207 -391q-63 0 -118.5 17.5t-88.5 43.5l39 78q73 -59 164 -59q53 0 89 23t36 63q0 33 -19.5 52t-56.5 19q-51 0 -78 -34l-68 38l64 173h92l-53 -136q29 23 76 23q59 0 97 -37.5t38 -99.5q0 -74 -61 -119t-152 -45z" />
    <glyph glyph-name="onesuperior" unicode="&#xb9;" horiz-adv-x="481" 
d="M358 862h-122v660l-136 -142l-71 76l221 225h108v-819z" />
    <glyph glyph-name="ordmasculine" unicode="&#xba;" horiz-adv-x="829" 
d="M414 651q-148 0 -240 98t-92 240q0 143 91.5 240.5t240.5 97.5q151 0 242.5 -97t91.5 -241q0 -143 -91.5 -240.5t-242.5 -97.5zM414 750q98 0 155.5 68t57.5 171t-57.5 170.5t-155.5 67.5q-97 0 -153 -67.5t-56 -170.5t56 -171t153 -68z" />
    <glyph glyph-name="guillemotright" unicode="&#xbb;" horiz-adv-x="899" 
d="M543 498l-328 -369h-154l328 369l-328 362h154zM838 498l-328 -369h-154l328 369l-328 362h154z" />
    <glyph glyph-name="onequarter" unicode="&#xbc;" horiz-adv-x="1576" 
d="M1208 1366l-874 -1366h-111l873 1366h112zM1501 205h-117v-205h-122v205h-402v92l354 522h170v-514h117v-100zM1262 305v406l-279 -406h279zM358 547h-122v659l-136 -141l-71 76l221 225h108v-819z" />
    <glyph glyph-name="onehalf" unicode="&#xbd;" horiz-adv-x="1652" 
d="M1208 1366l-874 -1366h-111l873 1366h112zM1556 0h-595v92q256 184 362.5 290t106.5 200q0 73 -51 111t-124 38q-72 0 -133.5 -30.5t-95.5 -75.5l-68 77q49 62 130.5 95.5t171.5 33.5q79 0 143 -24.5t106.5 -80.5t42.5 -136q0 -48 -20.5 -97.5t-54 -94.5t-88 -97
t-112 -98t-136.5 -103h415v-100zM358 547h-122v659l-136 -141l-71 76l221 225h108v-819z" />
    <glyph glyph-name="threequarters" unicode="&#xbe;" horiz-adv-x="1798" 
d="M1430 1366l-875 -1366h-111l873 1366h113zM1724 205h-116v-205h-123v205h-402v92l355 522h170v-514h116v-100zM1485 305v406l-279 -406h279zM702 770q0 -106 -83 -172t-226 -66q-104 0 -184.5 37.5t-122.5 96.5l68 77q40 -51 103.5 -80.5t133.5 -29.5q88 0 138.5 38.5
t50.5 104.5q0 74 -58 108t-155 34q-64 0 -82 -3v103q14 -2 82 -2q91 0 145.5 31.5t54.5 99.5q0 62 -52.5 96.5t-131.5 34.5q-132 0 -223 -98l-64 71q111 127 299 127q131 0 212 -59.5t81 -159.5q0 -82 -55.5 -129.5t-126.5 -58.5q31 -3 63.5 -16.5t63 -37t50 -62t19.5 -85.5
z" />
    <glyph glyph-name="questiondown" unicode="&#xbf;" horiz-adv-x="806" 
d="M530 606q78 -67 78 -168q0 -53 -20.5 -97.5t-53 -77t-71.5 -61.5t-78 -56.5t-71.5 -56t-53 -66.5t-20.5 -82q0 -81 62.5 -136t176.5 -55q111 0 189 42.5t139 123.5l102 -109q-75 -99 -188 -153.5t-256 -54.5q-183 0 -292.5 90.5t-109.5 226.5q0 63 22 116t57 90.5
t77 70.5t84 62t77 57.5t57 64.5t22 76q0 60 -53 98zM487 1010q46 0 79.5 -33.5t33.5 -79.5t-33.5 -79.5t-79.5 -33.5t-79 33.5t-33 79.5t33 79.5t79 33.5z" />
    <glyph glyph-name="Agrave" unicode="&#xc0;" horiz-adv-x="1347" 
d="M811 1491h-117l-346 295h160zM1329 0h-194l-121 305h-680l-121 -305h-195l551 1366h211zM965 455l-291 737l-289 -737h580z" />
    <glyph glyph-name="Aacute" unicode="&#xc1;" horiz-adv-x="1347" 
d="M1004 1786l-347 -295h-116l303 295h160zM1329 0h-194l-121 305h-680l-121 -305h-195l551 1366h211zM965 455l-291 737l-289 -737h580z" />
    <glyph glyph-name="Acircumflex" unicode="&#xc2;" horiz-adv-x="1347" 
d="M948 1491h-104l-170 217l-164 -217h-104l194 295h148zM1329 0h-194l-121 305h-680l-121 -305h-195l551 1366h211zM965 455l-291 737l-289 -737h580z" />
    <glyph glyph-name="Atilde" unicode="&#xc3;" horiz-adv-x="1347" 
d="M797 1487q-41 0 -73 19.5t-52 47t-38 55t-40 47t-49 19.5q-44 0 -71.5 -44t-27.5 -132h-92q0 123 52.5 199t146.5 76q34 0 62.5 -14t46.5 -35t35.5 -45.5t31.5 -45.5t33.5 -35t42.5 -14q44 0 71 44t27 132h92q0 -123 -52 -198.5t-146 -75.5zM1329 0h-194l-121 305h-680
l-121 -305h-195l551 1366h211zM965 455l-291 737l-289 -737h580z" />
    <glyph glyph-name="Adieresis" unicode="&#xc4;" horiz-adv-x="1347" 
d="M983 1583q0 -38 -28 -66t-68 -28q-38 0 -66 28t-28 66q0 39 27.5 66.5t66.5 27.5q40 0 68 -27t28 -67zM559 1583q0 -38 -28 -66t-66 -28q-40 0 -68 28t-28 66q0 40 28 67t68 27q39 0 66.5 -27.5t27.5 -66.5zM1329 0h-194l-121 305h-680l-121 -305h-195l551 1366h211z
M965 455l-291 737l-289 -737h580z" />
    <glyph glyph-name="Aring" unicode="&#xc5;" horiz-adv-x="1347" 
d="M676 1417q-83 0 -143 60t-60 143t60 143t143 60t140.5 -59.5t57.5 -143.5t-57.5 -143.5t-140.5 -59.5zM676 1499q49 0 84 35.5t35 85.5t-35 85.5t-84 35.5q-51 0 -86 -35.5t-35 -85.5t35 -85.5t86 -35.5zM1329 0h-194l-121 305h-680l-121 -305h-195l551 1366h211z
M965 455l-291 737l-289 -737h580z" />
    <glyph glyph-name="AE" unicode="&#xc6;" horiz-adv-x="1941" 
d="M1829 0h-895v305h-537l-188 -305h-195l852 1366h963v-152h-725v-440h711v-151h-711v-471h725v-152zM934 455v737l-455 -737h455z" />
    <glyph glyph-name="Ccedilla" unicode="&#xc7;" horiz-adv-x="1384" 
d="M795 -383q-63 0 -118.5 17.5t-88.5 43.5l39 78q73 -59 164 -59q53 0 88.5 23t35.5 63q0 33 -19 52.5t-56 19.5q-51 0 -78 -35l-68 39l43 121q-134 12 -250.5 68t-201 146t-133 216.5t-48.5 271.5q0 154 55 287t149 224.5t223.5 143.5t275.5 52q329 0 518 -271l-141 -80
q-60 90 -161 144.5t-216 54.5q-226 0 -376 -155.5t-150 -399.5q0 -159 69 -286.5t189 -198t268 -70.5q114 0 215.5 55t161.5 144l143 -78q-194 -265 -500 -273l-30 -79q27 22 75 22q59 0 97.5 -37.5t38.5 -99.5q0 -74 -61 -119t-152 -45z" />
    <glyph glyph-name="Egrave" unicode="&#xc8;" horiz-adv-x="1165" 
d="M743 1491h-116l-346 295h159zM1055 0h-895v1366h895v-152h-725v-440h710v-151h-710v-471h725v-152z" />
    <glyph glyph-name="Eacute" unicode="&#xc9;" horiz-adv-x="1165" 
d="M934 1786l-346 -295h-117l303 295h160zM1055 0h-895v1366h895v-152h-725v-440h710v-151h-710v-471h725v-152z" />
    <glyph glyph-name="Ecircumflex" unicode="&#xca;" horiz-adv-x="1165" 
d="M877 1491h-105l-170 217l-164 -217h-104l194 295h148zM1055 0h-895v1366h895v-152h-725v-440h710v-151h-710v-471h725v-152z" />
    <glyph glyph-name="Edieresis" unicode="&#xcb;" horiz-adv-x="1165" 
d="M913 1583q0 -38 -28 -66t-68 -28q-38 0 -66 28t-28 66q0 39 27.5 66.5t66.5 27.5q40 0 68 -27t28 -67zM489 1583q0 -38 -28 -66t-66 -28q-40 0 -68 28t-28 66q0 40 28 67t68 27q39 0 66.5 -27.5t27.5 -66.5zM1055 0h-895v1366h895v-152h-725v-440h710v-151h-710v-471h725
v-152z" />
    <glyph glyph-name="Igrave" unicode="&#xcc;" horiz-adv-x="489" 
d="M379 1491h-117l-346 295h160zM330 0h-170v1366h170v-1366z" />
    <glyph glyph-name="Iacute" unicode="&#xcd;" horiz-adv-x="489" 
d="M575 1786l-346 -295h-116l303 295h159zM330 0h-170v1366h170v-1366z" />
    <glyph glyph-name="Icircumflex" unicode="&#xce;" horiz-adv-x="489" 
d="M516 1491h-104l-170 217l-164 -217h-105l195 295h147zM330 0h-170v1366h170v-1366z" />
    <glyph glyph-name="Idieresis" unicode="&#xcf;" horiz-adv-x="489" 
d="M551 1583q0 -38 -28 -66t-68 -28q-38 0 -66.5 28t-28.5 66q0 39 28 66.5t67 27.5q40 0 68 -27t28 -67zM127 1583q0 -38 -28 -66t-66 -28q-40 0 -68 28t-28 66q0 40 28 67t68 27q39 0 66.5 -27.5t27.5 -66.5zM330 0h-170v1366h170v-1366z" />
    <glyph glyph-name="Eth" unicode="&#xd0;" horiz-adv-x="1490" 
d="M684 0h-467v612h-197v125h197v629h467q208 0 369 -90.5t246 -245.5t85 -348q0 -145 -50 -270.5t-140 -216.5t-221.5 -143t-288.5 -52zM733 612h-346v-460h297q161 0 282 72t181.5 191t60.5 267q0 150 -59.5 269t-180 191t-284.5 72h-297v-477h346v-125z" />
    <glyph glyph-name="Ntilde" unicode="&#xd1;" horiz-adv-x="1449" 
d="M844 1487q-41 0 -73 19.5t-52 47t-38 55t-40 47t-49 19.5q-44 0 -71 -44t-27 -132h-93q0 123 52.5 199t146.5 76q34 0 62.5 -14t46.5 -35t35.5 -45.5t31.5 -45.5t33.5 -35t42.5 -14q44 0 71 44t27 132h92q0 -123 -52 -198.5t-146 -75.5zM1290 0h-164l-796 1090v-1090
h-170v1366h174l786 -1067v1067h170v-1366z" />
    <glyph glyph-name="Ograve" unicode="&#xd2;" horiz-adv-x="1566" 
d="M926 1491h-117l-346 295h160zM782 -25q-198 0 -353.5 92.5t-240 253.5t-84.5 361t84.5 361t240 253.5t353.5 92.5t354 -92.5t241 -253.5t85 -361t-85 -361t-241 -253.5t-354 -92.5zM782 127q150 0 265.5 72.5t177 198.5t61.5 284q0 242 -139 398.5t-365 156.5
q-227 0 -364 -156t-137 -399q0 -158 60.5 -284t175.5 -198.5t265 -72.5z" />
    <glyph glyph-name="Oacute" unicode="&#xd3;" horiz-adv-x="1566" 
d="M1114 1786l-346 -295h-117l303 295h160zM782 -25q-198 0 -353.5 92.5t-240 253.5t-84.5 361t84.5 361t240 253.5t353.5 92.5t354 -92.5t241 -253.5t85 -361t-85 -361t-241 -253.5t-354 -92.5zM782 127q150 0 265.5 72.5t177 198.5t61.5 284q0 242 -139 398.5t-365 156.5
q-227 0 -364 -156t-137 -399q0 -158 60.5 -284t175.5 -198.5t265 -72.5z" />
    <glyph glyph-name="Ocircumflex" unicode="&#xd4;" horiz-adv-x="1566" 
d="M1059 1491h-105l-170 217l-163 -217h-105l195 295h147zM782 -25q-198 0 -353.5 92.5t-240 253.5t-84.5 361t84.5 361t240 253.5t353.5 92.5t354 -92.5t241 -253.5t85 -361t-85 -361t-241 -253.5t-354 -92.5zM782 127q150 0 265.5 72.5t177 198.5t61.5 284
q0 242 -139 398.5t-365 156.5q-227 0 -364 -156t-137 -399q0 -158 60.5 -284t175.5 -198.5t265 -72.5z" />
    <glyph glyph-name="Otilde" unicode="&#xd5;" horiz-adv-x="1566" 
d="M905 1487q-41 0 -73 19.5t-52 47t-38 55t-40 47t-49 19.5q-44 0 -71 -44t-27 -132h-92q0 123 52.5 199t146.5 76q41 0 72.5 -19.5t51.5 -47t38 -55.5t40 -47.5t49 -19.5q44 0 71.5 44t27.5 132h92q0 -123 -52.5 -198.5t-146.5 -75.5zM782 -25q-198 0 -353.5 92.5
t-240 253.5t-84.5 361t84.5 361t240 253.5t353.5 92.5t354 -92.5t241 -253.5t85 -361t-85 -361t-241 -253.5t-354 -92.5zM782 127q150 0 265.5 72.5t177 198.5t61.5 284q0 242 -139 398.5t-365 156.5q-227 0 -364 -156t-137 -399q0 -158 60.5 -284t175.5 -198.5t265 -72.5z
" />
    <glyph glyph-name="Odieresis" unicode="&#xd6;" horiz-adv-x="1566" 
d="M1090 1583q0 -38 -28.5 -66t-68.5 -28q-38 0 -66 28t-28 66q0 39 27.5 66.5t66.5 27.5q40 0 68.5 -27.5t28.5 -66.5zM666 1583q0 -38 -28.5 -66t-66.5 -28q-40 0 -68 28t-28 66q0 40 28 67t68 27q39 0 67 -27.5t28 -66.5zM782 -25q-198 0 -353.5 92.5t-240 253.5
t-84.5 361t84.5 361t240 253.5t353.5 92.5t354 -92.5t241 -253.5t85 -361t-85 -361t-241 -253.5t-354 -92.5zM782 127q150 0 265.5 72.5t177 198.5t61.5 284q0 242 -139 398.5t-365 156.5q-227 0 -364 -156t-137 -399q0 -158 60.5 -284t175.5 -198.5t265 -72.5z" />
    <glyph glyph-name="multiply" unicode="&#xd7;" horiz-adv-x="1021" 
d="M815 303l-305 305l-303 -305l-76 76l305 305l-305 305l76 76l303 -305l305 305l76 -76l-303 -305l303 -305z" />
    <glyph glyph-name="Oslash" unicode="&#xd8;" horiz-adv-x="1566" 
d="M782 -25q-194 0 -352 93l-45 -68h-137l90 133q-111 96 -172.5 238t-61.5 311q0 200 84.5 361t240 253.5t353.5 92.5q189 0 342 -86l43 63h138l-86 -129q115 -96 179 -240.5t64 -314.5q0 -200 -85 -361t-241 -253.5t-354 -92.5zM782 127q150 0 265.5 72.5t177 198.5
t61.5 284q0 128 -41.5 236.5t-118.5 183.5l-608 -903q113 -72 264 -72zM281 682q0 -257 149 -412l606 901q-116 66 -254 66q-227 0 -364 -156t-137 -399z" />
    <glyph glyph-name="Ugrave" unicode="&#xd9;" horiz-adv-x="1435" 
d="M856 1491h-117l-346 295h160zM717 -25q-271 0 -414 148.5t-143 406.5v836h172v-831q0 -191 99.5 -299.5t285.5 -108.5t286.5 109t100.5 299v831h172v-834q0 -261 -143 -409t-416 -148z" />
    <glyph glyph-name="Uacute" unicode="&#xda;" horiz-adv-x="1435" 
d="M1044 1786l-346 -295h-116l303 295h159zM717 -25q-271 0 -414 148.5t-143 406.5v836h172v-831q0 -191 99.5 -299.5t285.5 -108.5t286.5 109t100.5 299v831h172v-834q0 -261 -143 -409t-416 -148z" />
    <glyph glyph-name="Ucircumflex" unicode="&#xdb;" horiz-adv-x="1435" 
d="M999 1491h-104l-170 217l-164 -217h-104l194 295h148zM717 -25q-271 0 -414 148.5t-143 406.5v836h172v-831q0 -191 99.5 -299.5t285.5 -108.5t286.5 109t100.5 299v831h172v-834q0 -261 -143 -409t-416 -148z" />
    <glyph glyph-name="Udieresis" unicode="&#xdc;" horiz-adv-x="1435" 
d="M1026 1583q0 -38 -28 -66t-68 -28q-38 0 -66 28t-28 66q0 39 27.5 66.5t66.5 27.5q40 0 68 -27t28 -67zM602 1583q0 -38 -28 -66t-66 -28q-40 0 -68 28t-28 66q0 40 28 67t68 27q39 0 66.5 -27.5t27.5 -66.5zM717 -25q-271 0 -414 148.5t-143 406.5v836h172v-831
q0 -191 99.5 -299.5t285.5 -108.5t286.5 109t100.5 299v831h172v-834q0 -261 -143 -409t-416 -148z" />
    <glyph glyph-name="Yacute" unicode="&#xdd;" horiz-adv-x="1282" 
d="M977 1786l-346 -295h-117l303 295h160zM727 0h-170v578l-539 788h199l424 -635l424 635h199l-537 -788v-578z" />
    <glyph glyph-name="Thorn" unicode="&#xde;" horiz-adv-x="1202" 
d="M330 0h-170v1366h170v-244h379q198 0 313 -119t115 -294q0 -174 -115.5 -292t-312.5 -118h-379v-299zM688 451q122 0 197.5 71.5t75.5 186.5q0 116 -76 189t-197 73h-358v-520h358z" />
    <glyph glyph-name="germandbls" unicode="&#xdf;" horiz-adv-x="1222" 
d="M1184 276q0 -128 -99 -214.5t-282 -86.5q-134 0 -219 41.5t-162 118.5l78 107q46 -61 125.5 -100.5t177.5 -39.5q112 0 171.5 49.5t59.5 120.5q0 48 -32.5 81t-84.5 51.5t-114.5 34t-125 36t-114.5 49t-84.5 81.5t-32.5 126q0 61 31 110.5t75 81.5t87.5 60t74.5 60.5
t31 68.5q0 63 -61.5 100t-140.5 37q-100 0 -167 -62t-67 -165v-1022h-153v1022q0 155 106.5 259.5t282.5 104.5q147 0 252.5 -71t105.5 -187q0 -45 -17 -83t-44 -64t-59.5 -49.5t-65.5 -44.5t-60 -42.5t-44 -50.5t-17 -63q0 -43 32.5 -71.5t84.5 -45t114.5 -30.5t125 -35
t114.5 -51.5t84.5 -87t32.5 -134.5z" />
    <glyph glyph-name="agrave" unicode="&#xe0;" horiz-adv-x="1081" 
d="M926 0h-154v113q-123 -138 -328 -138q-63 0 -123.5 21.5t-110.5 61.5t-80 103.5t-30 141.5q0 80 30 144.5t79.5 103t109.5 58.5t125 20q210 0 328 -133v178q0 96 -70 151.5t-180 55.5q-176 0 -303 -138l-72 107q157 164 396 164q82 0 149.5 -19t120.5 -57.5t83 -104.5
t30 -153v-680zM502 86q82 0 154.5 31.5t115.5 91.5v188q-43 58 -115.5 89.5t-154.5 31.5q-108 0 -177 -60.5t-69 -154.5q0 -95 68.5 -156t177.5 -61zM680 1139h-117l-346 295h160z" />
    <glyph glyph-name="aacute" unicode="&#xe1;" horiz-adv-x="1081" 
d="M926 0h-154v113q-123 -138 -328 -138q-63 0 -123.5 21.5t-110.5 61.5t-80 103.5t-30 141.5q0 80 30 144.5t79.5 103t109.5 58.5t125 20q210 0 328 -133v178q0 96 -70 151.5t-180 55.5q-176 0 -303 -138l-72 107q157 164 396 164q82 0 149.5 -19t120.5 -57.5t83 -104.5
t30 -153v-680zM502 86q82 0 154.5 31.5t115.5 91.5v188q-43 58 -115.5 89.5t-154.5 31.5q-108 0 -177 -60.5t-69 -154.5q0 -95 68.5 -156t177.5 -61zM874 1434l-346 -295h-116l303 295h159z" />
    <glyph glyph-name="acircumflex" unicode="&#xe2;" horiz-adv-x="1081" 
d="M926 0h-154v113q-123 -138 -328 -138q-63 0 -123.5 21.5t-110.5 61.5t-80 103.5t-30 141.5q0 80 30 144.5t79.5 103t109.5 58.5t125 20q210 0 328 -133v178q0 96 -70 151.5t-180 55.5q-176 0 -303 -138l-72 107q157 164 396 164q82 0 149.5 -19t120.5 -57.5t83 -104.5
t30 -153v-680zM502 86q82 0 154.5 31.5t115.5 91.5v188q-43 58 -115.5 89.5t-154.5 31.5q-108 0 -177 -60.5t-69 -154.5q0 -95 68.5 -156t177.5 -61zM821 1139h-104l-170 217l-164 -217h-104l194 295h148z" />
    <glyph glyph-name="atilde" unicode="&#xe3;" horiz-adv-x="1081" 
d="M926 0h-154v113q-123 -138 -328 -138q-63 0 -123.5 21.5t-110.5 61.5t-80 103.5t-30 141.5q0 80 30 144.5t79.5 103t109.5 58.5t125 20q210 0 328 -133v178q0 96 -70 151.5t-180 55.5q-176 0 -303 -138l-72 107q157 164 396 164q82 0 149.5 -19t120.5 -57.5t83 -104.5
t30 -153v-680zM502 86q82 0 154.5 31.5t115.5 91.5v188q-43 58 -115.5 89.5t-154.5 31.5q-108 0 -177 -60.5t-69 -154.5q0 -95 68.5 -156t177.5 -61zM666 1135q-41 0 -73 19.5t-52 47t-38 55t-40 47t-49 19.5q-44 0 -71.5 -44t-27.5 -132h-92q0 123 52.5 198.5t146.5 75.5
q41 0 73 -19.5t52 -47t38 -55t40 -47t49 -19.5q44 0 71 44t27 132h92q0 -123 -52 -198.5t-146 -75.5z" />
    <glyph glyph-name="adieresis" unicode="&#xe4;" horiz-adv-x="1081" 
d="M926 0h-154v113q-123 -138 -328 -138q-63 0 -123.5 21.5t-110.5 61.5t-80 103.5t-30 141.5q0 80 30 144.5t79.5 103t109.5 58.5t125 20q210 0 328 -133v178q0 96 -70 151.5t-180 55.5q-176 0 -303 -138l-72 107q157 164 396 164q82 0 149.5 -19t120.5 -57.5t83 -104.5
t30 -153v-680zM502 86q82 0 154.5 31.5t115.5 91.5v188q-43 58 -115.5 89.5t-154.5 31.5q-108 0 -177 -60.5t-69 -154.5q0 -95 68.5 -156t177.5 -61zM848 1237q0 -38 -28 -66t-68 -28q-38 0 -66.5 28t-28.5 66q0 39 28 66.5t67 27.5q40 0 68 -27t28 -67zM424 1237
q0 -38 -28 -66t-66 -28q-40 0 -68.5 28t-28.5 66q0 39 28.5 66.5t68.5 27.5q39 0 66.5 -27.5t27.5 -66.5z" />
    <glyph glyph-name="aring" unicode="&#xe5;" horiz-adv-x="1081" 
d="M926 0h-154v113q-123 -138 -328 -138q-63 0 -123.5 21.5t-110.5 61.5t-80 103.5t-30 141.5q0 80 30 144.5t79.5 103t109.5 58.5t125 20q210 0 328 -133v178q0 96 -70 151.5t-180 55.5q-176 0 -303 -138l-72 107q157 164 396 164q82 0 149.5 -19t120.5 -57.5t83 -104.5
t30 -153v-680zM502 86q82 0 154.5 31.5t115.5 91.5v188q-43 58 -115.5 89.5t-154.5 31.5q-108 0 -177 -60.5t-69 -154.5q0 -95 68.5 -156t177.5 -61zM545 1120q-83 0 -143 60t-60 143t60 143t143 60t140.5 -59.5t57.5 -143.5t-57.5 -143.5t-140.5 -59.5zM545 1202
q49 0 84 35.5t35 85.5t-35 85.5t-84 35.5q-51 0 -86 -35.5t-35 -85.5t35 -85.5t86 -35.5z" />
    <glyph glyph-name="ae" unicode="&#xe6;" horiz-adv-x="1820" 
d="M1726 444h-798q9 -145 104 -241.5t250 -96.5q87 0 167.5 32t139.5 93l74 -102q-157 -154 -393 -154q-263 0 -410 205q-62 -87 -163 -146t-244 -59q-66 0 -128.5 21.5t-113 61.5t-81 103.5t-30.5 141.5q0 153 100.5 239.5t243.5 86.5q209 0 328 -131v176q0 96 -70 151.5
t-180 55.5q-176 0 -303 -138l-72 107q157 164 396 164q139 0 225 -55t111 -162q56 98 150.5 157.5t227.5 59.5q214 0 341.5 -151t127.5 -380v-39zM926 559h649q-1 57 -21 113t-58 105t-102 79.5t-145 30.5q-76 0 -138 -30t-100.5 -78.5t-60 -105t-24.5 -114.5zM803 260
q-31 75 -31 133q-43 60 -115.5 92.5t-154.5 32.5q-108 0 -177 -60.5t-69 -154.5q0 -95 68.5 -156t177.5 -61q57 0 109 15t104.5 55.5t87.5 103.5z" />
    <glyph glyph-name="ccedilla" unicode="&#xe7;" horiz-adv-x="1015" 
d="M594 -387q-63 0 -118.5 17.5t-88.5 43.5l39 78q73 -59 164 -59q53 0 89 23t36 63q0 33 -19.5 52t-56.5 19q-51 0 -78 -34l-67 39l45 125q-198 17 -320.5 162t-122.5 354q0 146 61.5 263.5t174.5 186t258 68.5q229 0 362 -172l-102 -92q-93 127 -252 127
q-155 0 -248.5 -107t-93.5 -274t94 -275t248 -108q155 0 252 129l102 -95q-119 -157 -323 -170l-33 -86q29 23 76 23q59 0 97 -37.5t38 -99.5q0 -74 -61 -119t-152 -45z" />
    <glyph glyph-name="egrave" unicode="&#xe8;" horiz-adv-x="1153" 
d="M602 -25q-222 0 -364 145t-142 376q0 142 62.5 260.5t174.5 188t251 69.5q146 0 255 -71t164.5 -190.5t55.5 -269.5v-39h-799q9 -146 104.5 -244t249.5 -98q87 0 167.5 33t140.5 94l73 -100q-157 -154 -393 -154zM907 559q-1 57 -20.5 113t-57.5 105t-102 79.5t-145 30.5
q-76 0 -138 -30t-100.5 -78.5t-60.5 -105t-25 -114.5h649zM721 1139h-117l-346 295h160z" />
    <glyph glyph-name="eacute" unicode="&#xe9;" horiz-adv-x="1153" 
d="M602 -25q-222 0 -364 145t-142 376q0 142 62.5 260.5t174.5 188t251 69.5q146 0 255 -71t164.5 -190.5t55.5 -269.5v-39h-799q9 -146 104.5 -244t249.5 -98q87 0 167.5 33t140.5 94l73 -100q-157 -154 -393 -154zM907 559q-1 57 -20.5 113t-57.5 105t-102 79.5t-145 30.5
q-76 0 -138 -30t-100.5 -78.5t-60.5 -105t-25 -114.5h649zM913 1434l-346 -295h-116l303 295h159z" />
    <glyph glyph-name="ecircumflex" unicode="&#xea;" horiz-adv-x="1153" 
d="M602 -25q-222 0 -364 145t-142 376q0 142 62.5 260.5t174.5 188t251 69.5q146 0 255 -71t164.5 -190.5t55.5 -269.5v-39h-799q9 -146 104.5 -244t249.5 -98q87 0 167.5 33t140.5 94l73 -100q-157 -154 -393 -154zM907 559q-1 57 -20.5 113t-57.5 105t-102 79.5t-145 30.5
q-76 0 -138 -30t-100.5 -78.5t-60.5 -105t-25 -114.5h649zM858 1139h-104l-170 217l-164 -217h-105l195 295h147z" />
    <glyph glyph-name="edieresis" unicode="&#xeb;" horiz-adv-x="1153" 
d="M602 -25q-222 0 -364 145t-142 376q0 142 62.5 260.5t174.5 188t251 69.5q146 0 255 -71t164.5 -190.5t55.5 -269.5v-39h-799q9 -146 104.5 -244t249.5 -98q87 0 167.5 33t140.5 94l73 -100q-157 -154 -393 -154zM907 559q-1 57 -20.5 113t-57.5 105t-102 79.5t-145 30.5
q-76 0 -138 -30t-100.5 -78.5t-60.5 -105t-25 -114.5h649zM893 1237q0 -38 -28 -66t-68 -28q-38 0 -66.5 28t-28.5 66q0 39 28 66.5t67 27.5q40 0 68 -27t28 -67zM469 1237q0 -38 -28 -66t-66 -28q-40 0 -68 28t-28 66q0 40 28 67t68 27q39 0 66.5 -27.5t27.5 -66.5z" />
    <glyph glyph-name="igrave" unicode="&#xec;" horiz-adv-x="460" 
d="M365 1139h-117l-346 295h159zM307 0h-153v989h153v-989z" />
    <glyph glyph-name="iacute" unicode="&#xed;" horiz-adv-x="460" 
d="M559 1434l-346 -295h-117l303 295h160zM307 0h-153v989h153v-989z" />
    <glyph glyph-name="icircumflex" unicode="&#xee;" horiz-adv-x="460" 
d="M504 1139h-105l-170 217l-163 -217h-105l195 295h147zM307 0h-153v989h153v-989z" />
    <glyph glyph-name="idieresis" unicode="&#xef;" horiz-adv-x="460" 
d="M539 1237q0 -38 -28.5 -66t-68.5 -28q-38 0 -66 28t-28 66q0 39 27.5 66.5t66.5 27.5q40 0 68.5 -27.5t28.5 -66.5zM115 1237q0 -38 -28.5 -66t-66.5 -28q-40 0 -68 28t-28 66q0 40 28 67t68 27q39 0 67 -27.5t28 -66.5zM307 0h-153v989h153v-989z" />
    <glyph glyph-name="eth" unicode="&#xf0;" horiz-adv-x="1171" 
d="M250 1018l-37 86l242 106q-29 19 -85 55t-69 44l84 127q125 -77 229 -156l222 98l34 -84l-176 -77q381 -324 381 -711q0 -233 -133.5 -382t-355.5 -149q-218 0 -354 143t-136 361q0 216 127 359t324 143q200 0 323 -180q-104 186 -327 348zM586 113q152 0 239.5 106
t87.5 260q0 98 -37 180t-112.5 133.5t-177.5 51.5q-152 0 -240 -106.5t-88 -258.5q0 -154 88 -260t240 -106z" />
    <glyph glyph-name="ntilde" unicode="&#xf1;" horiz-adv-x="1130" 
d="M981 0h-152v647q0 125 -58 177.5t-165 52.5q-86 0 -165.5 -45t-127.5 -109v-723h-153v989h153v-143q58 69 154 118.5t201 49.5q313 0 313 -320v-694zM688 1135q-41 0 -73 19.5t-52 47t-38 55t-40 47t-49 19.5q-44 0 -71 -44t-27 -132h-92q0 123 52 198.5t146 75.5
q41 0 73 -19.5t52 -47t38 -55t40 -47t49 -19.5q44 0 71.5 44t27.5 132h92q0 -123 -52.5 -198.5t-146.5 -75.5z" />
    <glyph glyph-name="ograve" unicode="&#xf2;" horiz-adv-x="1171" 
d="M586 -25q-147 0 -259.5 70.5t-171.5 188.5t-59 262t59 261t171.5 187t259.5 70t259.5 -70t171 -187t58.5 -261t-58.5 -262t-171 -188.5t-259.5 -70.5zM586 113q102 0 177.5 54t112.5 139.5t37 189.5q0 103 -37 188t-112.5 139t-177.5 54t-178 -54t-113 -139.5t-37 -187.5
q0 -160 88 -271.5t240 -111.5zM721 1139h-117l-346 295h160z" />
    <glyph glyph-name="oacute" unicode="&#xf3;" horiz-adv-x="1171" 
d="M586 -25q-147 0 -259.5 70.5t-171.5 188.5t-59 262t59 261t171.5 187t259.5 70t259.5 -70t171 -187t58.5 -261t-58.5 -262t-171 -188.5t-259.5 -70.5zM586 113q102 0 177.5 54t112.5 139.5t37 189.5q0 103 -37 188t-112.5 139t-177.5 54t-178 -54t-113 -139.5t-37 -187.5
q0 -160 88 -271.5t240 -111.5zM913 1434l-346 -295h-116l303 295h159z" />
    <glyph glyph-name="ocircumflex" unicode="&#xf4;" horiz-adv-x="1171" 
d="M586 -25q-147 0 -259.5 70.5t-171.5 188.5t-59 262t59 261t171.5 187t259.5 70t259.5 -70t171 -187t58.5 -261t-58.5 -262t-171 -188.5t-259.5 -70.5zM586 113q102 0 177.5 54t112.5 139.5t37 189.5q0 103 -37 188t-112.5 139t-177.5 54t-178 -54t-113 -139.5t-37 -187.5
q0 -160 88 -271.5t240 -111.5zM860 1139h-104l-170 217l-164 -217h-105l195 295h147z" />
    <glyph glyph-name="otilde" unicode="&#xf5;" horiz-adv-x="1171" 
d="M586 -25q-147 0 -259.5 70.5t-171.5 188.5t-59 262t59 261t171.5 187t259.5 70t259.5 -70t171 -187t58.5 -261t-58.5 -262t-171 -188.5t-259.5 -70.5zM586 113q102 0 177.5 54t112.5 139.5t37 189.5q0 103 -37 188t-112.5 139t-177.5 54t-178 -54t-113 -139.5t-37 -187.5
q0 -160 88 -271.5t240 -111.5zM709 1135q-41 0 -73 19.5t-52 47t-38 55t-40 47t-49 19.5q-44 0 -71.5 -44t-27.5 -132h-92q0 123 52.5 198.5t146.5 75.5q41 0 73 -19.5t52 -47t38 -55t40 -47t49 -19.5q44 0 71 44t27 132h92q0 -123 -52 -198.5t-146 -75.5z" />
    <glyph glyph-name="odieresis" unicode="&#xf6;" horiz-adv-x="1171" 
d="M586 -25q-147 0 -259.5 70.5t-171.5 188.5t-59 262t59 261t171.5 187t259.5 70t259.5 -70t171 -187t58.5 -261t-58.5 -262t-171 -188.5t-259.5 -70.5zM586 113q102 0 177.5 54t112.5 139.5t37 189.5q0 103 -37 188t-112.5 139t-177.5 54t-178 -54t-113 -139.5t-37 -187.5
q0 -160 88 -271.5t240 -111.5zM893 1237q0 -38 -28 -66t-68 -28q-38 0 -66.5 28t-28.5 66q0 39 28 66.5t67 27.5q40 0 68 -27t28 -67zM469 1237q0 -38 -28 -66t-66 -28q-40 0 -68 28t-28 66q0 40 28 67t68 27q39 0 66.5 -27.5t27.5 -66.5z" />
    <glyph glyph-name="divide" unicode="&#xf7;" horiz-adv-x="1046" 
d="M618 1079q0 -40 -28 -68t-66 -28t-66 28t-28 68q0 38 28 65t66 27t66 -27t28 -65zM987 637h-928v106h928v-106zM618 295q0 -38 -28 -66t-66 -28t-66 28t-28 66t28 66t66 28t66 -28t28 -66z" />
    <glyph glyph-name="oslash" unicode="&#xf8;" horiz-adv-x="1171" 
d="M242 0h-111l98 125q-133 145 -133 371q0 144 59 261t171.5 187t259.5 70q160 0 280 -84l47 59h113l-92 -117q68 -71 104.5 -168.5t36.5 -207.5q0 -144 -58.5 -262t-171 -188.5t-259.5 -70.5q-168 0 -291 93zM586 113q102 0 177.5 54t112.5 139.5t37 189.5q0 151 -77 254
l-451 -568q81 -69 201 -69zM258 496q0 -147 70 -248l446 567q-78 62 -188 62q-102 0 -178 -54t-113 -139.5t-37 -187.5z" />
    <glyph glyph-name="ugrave" unicode="&#xf9;" horiz-adv-x="1128" 
d="M975 0h-154v139q-62 -70 -155 -117t-197 -47q-315 0 -315 316v698h153v-651q0 -124 57 -174.5t166 -50.5q86 0 166 43t125 106v727h154v-989zM705 1139h-117l-346 295h159z" />
    <glyph glyph-name="uacute" unicode="&#xfa;" horiz-adv-x="1128" 
d="M975 0h-154v139q-62 -70 -155 -117t-197 -47q-315 0 -315 316v698h153v-651q0 -124 57 -174.5t166 -50.5q86 0 166 43t125 106v727h154v-989zM895 1434l-346 -295h-117l303 295h160z" />
    <glyph glyph-name="ucircumflex" unicode="&#xfb;" horiz-adv-x="1128" 
d="M975 0h-154v139q-62 -70 -155 -117t-197 -47q-315 0 -315 316v698h153v-651q0 -124 57 -174.5t166 -50.5q86 0 166 43t125 106v727h154v-989zM838 1139h-105l-170 217l-164 -217h-104l194 295h148z" />
    <glyph glyph-name="udieresis" unicode="&#xfc;" horiz-adv-x="1128" 
d="M975 0h-154v139q-62 -70 -155 -117t-197 -47q-315 0 -315 316v698h153v-651q0 -124 57 -174.5t166 -50.5q86 0 166 43t125 106v727h154v-989zM879 1237q0 -38 -28.5 -66t-68.5 -28q-38 0 -66 28t-28 66q0 39 27.5 66.5t66.5 27.5q40 0 68.5 -27.5t28.5 -66.5zM455 1237
q0 -38 -28.5 -66t-66.5 -28q-40 0 -68 28t-28 66q0 40 28 67t68 27q39 0 67 -27.5t28 -66.5z" />
    <glyph glyph-name="yacute" unicode="&#xfd;" horiz-adv-x="1003" 
d="M100 -387l23 139q37 -16 84 -16q54 0 88 22.5t59 81.5l66 150l-414 999h168l328 -811l329 811h166l-495 -1190q-81 -197 -291 -200q-64 0 -111 14zM831 1434l-346 -295h-116l303 295h159z" />
    <glyph glyph-name="thorn" unicode="&#xfe;" horiz-adv-x="1171" 
d="M641 -25q-100 0 -185.5 46t-148.5 129v-527h-153v1743h153v-524q56 78 144.5 125t189.5 47q197 0 318.5 -139.5t121.5 -378.5q0 -237 -121.5 -379t-318.5 -142zM602 113q146 0 232 107.5t86 275.5t-86 274.5t-232 106.5q-88 0 -171 -46t-124 -112v-447q41 -67 124 -113
t171 -46z" />
    <glyph glyph-name="ydieresis" unicode="&#xff;" horiz-adv-x="1003" 
d="M100 -387l23 139q37 -16 84 -16q54 0 88 22.5t59 81.5l66 150l-414 999h168l328 -811l329 811h166l-495 -1190q-81 -197 -291 -200q-64 0 -111 14zM809 1237q0 -38 -28 -66t-68 -28q-38 0 -66.5 28t-28.5 66q0 39 28 66.5t67 27.5q40 0 68 -27t28 -67zM385 1237
q0 -38 -28 -66t-66 -28q-40 0 -68 28t-28 66q0 40 28 67t68 27q39 0 66.5 -27.5t27.5 -66.5z" />
    <glyph glyph-name="Amacron" unicode="&#x100;" horiz-adv-x="1347" 
d="M1329 0h-194l-121 305h-680l-121 -305h-195l551 1366h211zM965 455l-291 737l-289 -737h580zM1044 1534h-743v98h743v-98z" />
    <glyph glyph-name="amacron" unicode="&#x101;" horiz-adv-x="1081" 
d="M926 0h-154v113q-123 -138 -328 -138q-63 0 -123.5 21.5t-110.5 61.5t-80 103.5t-30 141.5q0 80 30 144.5t79.5 103t109.5 58.5t125 20q210 0 328 -133v178q0 96 -70 151.5t-180 55.5q-176 0 -303 -138l-72 107q157 164 396 164q82 0 149.5 -19t120.5 -57.5t83 -104.5
t30 -153v-680zM502 86q82 0 154.5 31.5t115.5 91.5v188q-43 58 -115.5 89.5t-154.5 31.5q-108 0 -177 -60.5t-69 -154.5q0 -95 68.5 -156t177.5 -61zM909 1184h-743v98h743v-98z" />
    <glyph glyph-name="Abreve" unicode="&#x102;" horiz-adv-x="1347" 
d="M1329 0h-194l-121 305h-680l-121 -305h-195l551 1366h211zM965 455l-291 737l-289 -737h580zM1032 1659q-62 -84 -155.5 -132t-202.5 -48q-108 0 -202.5 48t-158.5 132l78 65q48 -69 121 -108t162 -39q88 0 161 38.5t123 108.5z" />
    <glyph glyph-name="abreve" unicode="&#x103;" horiz-adv-x="1081" 
d="M926 0h-154v113q-123 -138 -328 -138q-63 0 -123.5 21.5t-110.5 61.5t-80 103.5t-30 141.5q0 80 30 144.5t79.5 103t109.5 58.5t125 20q210 0 328 -133v178q0 96 -70 151.5t-180 55.5q-176 0 -303 -138l-72 107q157 164 396 164q82 0 149.5 -19t120.5 -57.5t83 -104.5
t30 -153v-680zM502 86q82 0 154.5 31.5t115.5 91.5v188q-43 58 -115.5 89.5t-154.5 31.5q-108 0 -177 -60.5t-69 -154.5q0 -95 68.5 -156t177.5 -61zM897 1333q-62 -84 -155.5 -132t-202.5 -48q-108 0 -202.5 48t-158.5 132l78 66q49 -69 121.5 -108.5t161.5 -39.5
q88 0 161 39t123 109z" />
    <glyph glyph-name="Aogonek" unicode="&#x104;" horiz-adv-x="1347" 
d="M1368 -215l76 -43q-54 -123 -180 -123q-79 0 -132 45t-53 133q0 118 109 203h-53l-121 305h-680l-121 -305h-195l551 1366h211l549 -1366h-2q-156 -78 -156 -199q0 -51 25 -76.5t68 -25.5q76 0 104 86zM965 455l-291 737l-289 -737h580z" />
    <glyph glyph-name="aogonek" unicode="&#x105;" horiz-adv-x="1081" 
d="M967 -215l75 -43q-54 -123 -180 -123q-78 0 -131 45t-53 133q0 119 108 203h-14v113q-123 -138 -328 -138q-63 0 -123.5 21.5t-110.5 61.5t-80 103.5t-30 141.5q0 80 30 144.5t79.5 103t109.5 58.5t125 20q210 0 328 -133v178q0 96 -70 151.5t-180 55.5q-176 0 -303 -138
l-72 107q157 164 396 164q82 0 149.5 -19t120.5 -57.5t83 -104.5t30 -153v-680q-156 -78 -156 -199q0 -51 24.5 -76.5t67.5 -25.5q77 0 105 86zM502 86q82 0 154.5 31.5t115.5 91.5v188q-43 58 -115.5 89.5t-154.5 31.5q-108 0 -177 -60.5t-69 -154.5q0 -95 68.5 -156
t177.5 -61z" />
    <glyph glyph-name="Cacute" unicode="&#x106;" horiz-adv-x="1384" 
d="M807 -25q-146 0 -275.5 52t-223.5 143.5t-149 224.5t-55 287t55 287t149 224.5t223.5 143.5t275.5 52q329 0 518 -271l-141 -80q-60 90 -161 144.5t-216 54.5q-226 0 -376 -155.5t-150 -399.5q0 -159 69 -286.5t189 -198t268 -70.5q114 0 215.5 55t161.5 144l143 -78
q-199 -273 -520 -273zM1135 1786l-347 -295h-116l303 295h160z" />
    <glyph glyph-name="cacute" unicode="&#x107;" horiz-adv-x="1015" 
d="M590 -25q-218 0 -356 149t-138 372q0 146 61.5 263.5t174.5 186t258 68.5q229 0 362 -172l-102 -92q-93 127 -252 127q-155 0 -248.5 -107t-93.5 -274t94 -275t248 -108q155 0 252 129l102 -95q-133 -172 -362 -172zM928 1434l-346 -295h-117l303 295h160z" />
    <glyph glyph-name="Ccircumflex" unicode="&#x108;" horiz-adv-x="1384" 
d="M807 -25q-146 0 -275.5 52t-223.5 143.5t-149 224.5t-55 287t55 287t149 224.5t223.5 143.5t275.5 52q329 0 518 -271l-141 -80q-60 90 -161 144.5t-216 54.5q-226 0 -376 -155.5t-150 -399.5q0 -159 69 -286.5t189 -198t268 -70.5q114 0 215.5 55t161.5 144l143 -78
q-199 -273 -520 -273zM1079 1491h-104l-170 217l-164 -217h-104l194 295h148z" />
    <glyph glyph-name="ccircumflex" unicode="&#x109;" horiz-adv-x="1015" 
d="M590 -25q-218 0 -356 149t-138 372q0 146 61.5 263.5t174.5 186t258 68.5q229 0 362 -172l-102 -92q-93 127 -252 127q-155 0 -248.5 -107t-93.5 -274t94 -275t248 -108q155 0 252 129l102 -95q-133 -172 -362 -172zM870 1139h-104l-170 217l-164 -217h-104l194 295h148z
" />
    <glyph glyph-name="Cdotaccent" unicode="&#x10a;" horiz-adv-x="1384" 
d="M807 -25q-146 0 -275.5 52t-223.5 143.5t-149 224.5t-55 287t55 287t149 224.5t223.5 143.5t275.5 52q329 0 518 -271l-141 -80q-60 90 -161 144.5t-216 54.5q-226 0 -376 -155.5t-150 -399.5q0 -159 69 -286.5t189 -198t268 -70.5q114 0 215.5 55t161.5 144l143 -78
q-199 -273 -520 -273zM811 1489q-39 0 -67.5 28.5t-28.5 67.5t28.5 67.5t67.5 28.5q40 0 68 -28t28 -68t-28 -68t-68 -28z" />
    <glyph glyph-name="cdotaccent" unicode="&#x10b;" horiz-adv-x="1015" 
d="M590 -25q-218 0 -356 149t-138 372q0 146 61.5 263.5t174.5 186t258 68.5q229 0 362 -172l-102 -92q-93 127 -252 127q-155 0 -248.5 -107t-93.5 -274t94 -275t248 -108q155 0 252 129l102 -95q-133 -172 -362 -172zM594 1174q-39 0 -67.5 28.5t-28.5 67.5t28.5 67.5
t67.5 28.5q40 0 68 -28t28 -68t-28 -68t-68 -28z" />
    <glyph glyph-name="Ccaron" unicode="&#x10c;" horiz-adv-x="1384" 
d="M807 -25q-146 0 -275.5 52t-223.5 143.5t-149 224.5t-55 287t55 287t149 224.5t223.5 143.5t275.5 52q329 0 518 -271l-141 -80q-60 90 -161 144.5t-216 54.5q-226 0 -376 -155.5t-150 -399.5q0 -159 69 -286.5t189 -198t268 -70.5q114 0 215.5 55t161.5 144l143 -78
q-199 -273 -520 -273zM885 1491h-148l-200 295h104l170 -217l164 217h104z" />
    <glyph glyph-name="ccaron" unicode="&#x10d;" horiz-adv-x="1015" 
d="M590 -25q-218 0 -356 149t-138 372q0 146 61.5 263.5t174.5 186t258 68.5q229 0 362 -172l-102 -92q-93 127 -252 127q-155 0 -248.5 -107t-93.5 -274t94 -275t248 -108q155 0 252 129l102 -95q-133 -172 -362 -172zM676 1139h-148l-200 295h104l170 -217l164 217h104z
" />
    <glyph glyph-name="Dcaron" unicode="&#x10e;" horiz-adv-x="1433" 
d="M627 0h-467v1366h467q208 0 369 -90.5t246 -245.5t85 -348q0 -145 -50 -270.5t-140 -216.5t-221.5 -143t-288.5 -52zM627 152q161 0 282 72t181.5 191t60.5 267q0 150 -59.5 269t-180 191t-284.5 72h-297v-1062h297zM797 1491h-148l-200 295h104l170 -217l164 217h104z
" />
    <glyph glyph-name="dcaron" unicode="&#x10f;" horiz-adv-x="1318" 
d="M1024 0h-154v147q-58 -78 -145 -125t-188 -47q-196 0 -318.5 140.5t-122.5 378.5q0 235 123 377.5t318 142.5q99 0 185.5 -46t147.5 -128v526h154v-1366zM575 113q89 0 171.5 45.5t123.5 111.5v447q-41 67 -124 113.5t-171 46.5q-147 0 -233 -107.5t-86 -275.5
t85.5 -274.5t233.5 -106.5zM1327 1255q0 -80 -41 -153.5t-104 -120.5l-66 53q45 31 79 81.5t38 94.5l-9 -1q-9 -1 -14 -1q-37 0 -61.5 25.5t-24.5 64.5t28 67t67 28q45 0 76.5 -37.5t31.5 -100.5z" />
    <glyph glyph-name="Dcroat" unicode="&#x110;" horiz-adv-x="1490" 
d="M684 0h-467v612h-197v125h197v629h467q208 0 369 -90.5t246 -245.5t85 -348q0 -145 -50 -270.5t-140 -216.5t-221.5 -143t-288.5 -52zM733 612h-346v-460h297q161 0 282 72t181.5 191t60.5 267q0 150 -59.5 269t-180 191t-284.5 72h-297v-477h346v-125z" />
    <glyph glyph-name="dcroat" unicode="&#x111;" horiz-adv-x="1185" 
d="M1024 0h-154v147q-58 -78 -145 -125t-188 -47q-196 0 -318.5 140.5t-122.5 378.5q0 235 123 377.5t318 142.5q99 0 185.5 -46t147.5 -128v256h-321v98h321v172h154v-172h139v-98h-139v-1096zM575 113q89 0 171.5 45.5t123.5 111.5v447q-41 67 -124 113.5t-171 46.5
q-147 0 -233 -107.5t-86 -275.5t85.5 -274.5t233.5 -106.5z" />
    <glyph glyph-name="Emacron" unicode="&#x112;" horiz-adv-x="1165" 
d="M1055 0h-895v1366h895v-152h-725v-440h710v-151h-710v-471h725v-152zM973 1534h-744v98h744v-98z" />
    <glyph glyph-name="emacron" unicode="&#x113;" horiz-adv-x="1153" 
d="M602 -25q-222 0 -364 145t-142 376q0 142 62.5 260.5t174.5 188t251 69.5q146 0 255 -71t164.5 -190.5t55.5 -269.5v-39h-799q9 -146 104.5 -244t249.5 -98q87 0 167.5 33t140.5 94l73 -100q-157 -154 -393 -154zM907 559q-1 57 -20.5 113t-57.5 105t-102 79.5t-145 30.5
q-76 0 -138 -30t-100.5 -78.5t-60.5 -105t-25 -114.5h649zM948 1184h-743v98h743v-98z" />
    <glyph glyph-name="Ebreve" unicode="&#x114;" horiz-adv-x="1165" 
d="M1055 0h-895v1366h895v-152h-725v-440h710v-151h-710v-471h725v-152zM961 1659q-62 -84 -156 -132t-203 -48q-107 0 -201.5 48t-158.5 132l77 65q48 -69 121 -108t162 -39q88 0 161.5 38.5t123.5 108.5z" />
    <glyph glyph-name="ebreve" unicode="&#x115;" horiz-adv-x="1153" 
d="M602 -25q-222 0 -364 145t-142 376q0 142 62.5 260.5t174.5 188t251 69.5q146 0 255 -71t164.5 -190.5t55.5 -269.5v-39h-799q9 -146 104.5 -244t249.5 -98q87 0 167.5 33t140.5 94l73 -100q-157 -154 -393 -154zM907 559q-1 57 -20.5 113t-57.5 105t-102 79.5t-145 30.5
q-76 0 -138 -30t-100.5 -78.5t-60.5 -105t-25 -114.5h649zM948 1333q-62 -84 -155.5 -132t-202.5 -48q-108 0 -202.5 48t-158.5 132l78 66q49 -69 121.5 -108.5t161.5 -39.5q88 0 161 39t123 109z" />
    <glyph glyph-name="Edotaccent" unicode="&#x116;" horiz-adv-x="1165" 
d="M1055 0h-895v1366h895v-152h-725v-440h710v-151h-710v-471h725v-152zM616 1489q-39 0 -67.5 28.5t-28.5 67.5t28.5 67.5t67.5 28.5q40 0 68.5 -28t28.5 -68t-28.5 -68t-68.5 -28z" />
    <glyph glyph-name="edotaccent" unicode="&#x117;" horiz-adv-x="1153" 
d="M602 -25q-222 0 -364 145t-142 376q0 142 62.5 260.5t174.5 188t251 69.5q146 0 255 -71t164.5 -190.5t55.5 -269.5v-39h-799q9 -146 104.5 -244t249.5 -98q87 0 167.5 33t140.5 94l73 -100q-157 -154 -393 -154zM907 559q-1 57 -20.5 113t-57.5 105t-102 79.5t-145 30.5
q-76 0 -138 -30t-100.5 -78.5t-60.5 -105t-25 -114.5h649zM586 1174q-39 0 -68 28.5t-29 67.5t29 67.5t68 28.5q40 0 68 -28t28 -68t-28 -68t-68 -28z" />
    <glyph glyph-name="Eogonek" unicode="&#x118;" horiz-adv-x="1165" 
d="M1096 -215l75 -43q-54 -123 -180 -123q-78 0 -131 45t-53 133q0 119 108 203h-755v1366h895v-152h-725v-440h710v-151h-710v-471h725v-152q-156 -78 -156 -199q0 -51 24.5 -76.5t67.5 -25.5q77 0 105 86z" />
    <glyph glyph-name="eogonek" unicode="&#x119;" horiz-adv-x="1153" 
d="M602 -25q-222 0 -364 145t-142 376q0 142 62.5 260.5t174.5 188t251 69.5q146 0 255 -71t164.5 -190.5t55.5 -269.5v-39h-799q9 -146 104.5 -244t249.5 -98q87 0 167.5 33t140.5 94l73 -100q-91 -91 -219 -129q-155 -78 -155 -199q0 -51 24.5 -76.5t67.5 -25.5
q76 0 104 86l76 -43q-54 -123 -180 -123q-79 0 -132 45t-53 133q0 98 80 178h-6zM907 559q-1 57 -20.5 113t-57.5 105t-102 79.5t-145 30.5q-76 0 -138 -30t-100.5 -78.5t-60.5 -105t-25 -114.5h649z" />
    <glyph glyph-name="Ecaron" unicode="&#x11a;" horiz-adv-x="1165" 
d="M1055 0h-895v1366h895v-152h-725v-440h710v-151h-710v-471h725v-152zM686 1491h-147l-201 295h104l170 -217l164 217h105z" />
    <glyph glyph-name="ecaron" unicode="&#x11b;" horiz-adv-x="1153" 
d="M602 -25q-222 0 -364 145t-142 376q0 142 62.5 260.5t174.5 188t251 69.5q146 0 255 -71t164.5 -190.5t55.5 -269.5v-39h-799q9 -146 104.5 -244t249.5 -98q87 0 167.5 33t140.5 94l73 -100q-157 -154 -393 -154zM907 559q-1 57 -20.5 113t-57.5 105t-102 79.5t-145 30.5
q-76 0 -138 -30t-100.5 -78.5t-60.5 -105t-25 -114.5h649zM662 1139h-148l-201 295h105l170 -217l164 217h104z" />
    <glyph glyph-name="Gcircumflex" unicode="&#x11c;" horiz-adv-x="1460" 
d="M807 -27q-145 0 -274 51.5t-223.5 143t-150 225t-55.5 289.5t55.5 289.5t150 224.5t223.5 142t274 51q324 0 530 -254l-135 -86q-66 86 -170.5 137t-224.5 51q-226 0 -376 -155.5t-150 -399.5q0 -159 69 -286.5t189 -198t268 -70.5q113 0 211 43.5t158 103.5v277h-471
v151h638v-491q-99 -111 -236.5 -174.5t-299.5 -63.5zM1087 1491h-104l-170 217l-164 -217h-104l194 295h148z" />
    <glyph glyph-name="gcircumflex" unicode="&#x11d;" horiz-adv-x="1177" 
d="M551 -401q-130 0 -221.5 32t-177.5 117l77 111q61 -71 137.5 -102t184.5 -31q136 0 227.5 71t91.5 217v150q-58 -79 -145.5 -127.5t-187.5 -48.5q-197 0 -319 138t-122 374q0 235 122 374.5t319 139.5q99 0 185.5 -46t147.5 -128v149h154v-975q0 -113 -39 -196
t-107.5 -129.5t-149.5 -68t-177 -21.5zM575 125q88 0 170 46.5t125 113.5v434q-43 66 -125.5 112t-169.5 46q-148 0 -233.5 -104.5t-85.5 -272.5q0 -166 85.5 -270.5t233.5 -104.5zM866 1124h-104l-170 217l-164 -217h-104l194 295h148z" />
    <glyph glyph-name="Gbreve" unicode="&#x11e;" horiz-adv-x="1460" 
d="M807 -27q-145 0 -274 51.5t-223.5 143t-150 225t-55.5 289.5t55.5 289.5t150 224.5t223.5 142t274 51q324 0 530 -254l-135 -86q-66 86 -170.5 137t-224.5 51q-226 0 -376 -155.5t-150 -399.5q0 -159 69 -286.5t189 -198t268 -70.5q113 0 211 43.5t158 103.5v277h-471
v151h638v-491q-99 -111 -236.5 -174.5t-299.5 -63.5zM1171 1659q-62 -84 -155.5 -132t-202.5 -48q-107 0 -201.5 48t-158.5 132l77 65q48 -69 121 -108t162 -39q88 0 161.5 38.5t123.5 108.5z" />
    <glyph glyph-name="gbreve" unicode="&#x11f;" horiz-adv-x="1177" 
d="M551 -401q-130 0 -221.5 32t-177.5 117l77 111q61 -71 137.5 -102t184.5 -31q136 0 227.5 71t91.5 217v150q-58 -79 -145.5 -127.5t-187.5 -48.5q-197 0 -319 138t-122 374q0 235 122 374.5t319 139.5q99 0 185.5 -46t147.5 -128v149h154v-975q0 -113 -39 -196
t-107.5 -129.5t-149.5 -68t-177 -21.5zM575 125q88 0 170 46.5t125 113.5v434q-43 66 -125.5 112t-169.5 46q-148 0 -233.5 -104.5t-85.5 -272.5q0 -166 85.5 -270.5t233.5 -104.5zM944 1333q-62 -84 -155.5 -132t-202.5 -48q-108 0 -202.5 48t-158.5 132l78 66
q49 -69 121.5 -108.5t161.5 -39.5q88 0 161 39t123 109z" />
    <glyph glyph-name="Gdotaccent" unicode="&#x120;" horiz-adv-x="1460" 
d="M807 -27q-145 0 -274 51.5t-223.5 143t-150 225t-55.5 289.5t55.5 289.5t150 224.5t223.5 142t274 51q324 0 530 -254l-135 -86q-66 86 -170.5 137t-224.5 51q-226 0 -376 -155.5t-150 -399.5q0 -159 69 -286.5t189 -198t268 -70.5q113 0 211 43.5t158 103.5v277h-471
v151h638v-491q-99 -111 -236.5 -174.5t-299.5 -63.5zM811 1489q-39 0 -67.5 28.5t-28.5 67.5t28.5 67.5t67.5 28.5q40 0 68 -28t28 -68t-28 -68t-68 -28z" />
    <glyph glyph-name="gdotaccent" unicode="&#x121;" horiz-adv-x="1177" 
d="M551 -401q-130 0 -221.5 32t-177.5 117l77 111q61 -71 137.5 -102t184.5 -31q136 0 227.5 71t91.5 217v150q-58 -79 -145.5 -127.5t-187.5 -48.5q-197 0 -319 138t-122 374q0 235 122 374.5t319 139.5q99 0 185.5 -46t147.5 -128v149h154v-975q0 -113 -39 -196
t-107.5 -129.5t-149.5 -68t-177 -21.5zM575 125q88 0 170 46.5t125 113.5v434q-43 66 -125.5 112t-169.5 46q-148 0 -233.5 -104.5t-85.5 -272.5q0 -166 85.5 -270.5t233.5 -104.5zM592 1174q-39 0 -67.5 28.5t-28.5 67.5t28.5 67.5t67.5 28.5q40 0 68 -28t28 -68t-28 -68
t-68 -28z" />
    <glyph glyph-name="Gcommaaccent" unicode="&#x122;" horiz-adv-x="1460" 
d="M807 -27q-145 0 -274 51.5t-223.5 143t-150 225t-55.5 289.5t55.5 289.5t150 224.5t223.5 142t274 51q324 0 530 -254l-135 -86q-66 86 -170.5 137t-224.5 51q-226 0 -376 -155.5t-150 -399.5q0 -159 69 -286.5t189 -198t268 -70.5q113 0 211 43.5t158 103.5v277h-471
v151h638v-491q-99 -111 -236.5 -174.5t-299.5 -63.5zM920 -283q0 -80 -41.5 -153.5t-104.5 -120.5l-65 53q45 31 78.5 81.5t37.5 94.5l-9 -1q-8 -1 -13 -1q-37 0 -61.5 25.5t-24.5 64.5t27.5 67t66.5 28q45 0 77 -37.5t32 -100.5z" />
    <glyph glyph-name="gcommaaccent" unicode="&#x123;" horiz-adv-x="1177" 
d="M477 1270q0 89 40 167.5t101 121.5l68 -56q-44 -29 -79 -78t-38 -92q5 2 11 2q35 0 63.5 -27.5t28.5 -66.5q0 -37 -28 -65.5t-69 -28.5q-39 0 -68.5 32t-29.5 91zM551 -401q-130 0 -221.5 32t-177.5 117l77 111q61 -71 137.5 -102t184.5 -31q136 0 227.5 71t91.5 217v150
q-58 -79 -145.5 -127.5t-187.5 -48.5q-197 0 -319 138t-122 374q0 235 122 374.5t319 139.5q99 0 185.5 -46t147.5 -128v149h154v-975q0 -113 -39 -196t-107.5 -129.5t-149.5 -68t-177 -21.5zM575 125q88 0 170 46.5t125 113.5v434q-43 66 -125.5 112t-169.5 46
q-148 0 -233.5 -104.5t-85.5 -272.5q0 -166 85.5 -270.5t233.5 -104.5z" />
    <glyph glyph-name="Hcircumflex" unicode="&#x124;" horiz-adv-x="1458" 
d="M1298 0h-170v627h-798v-627h-170v1366h170v-588h798v588h170v-1366zM995 1491h-104l-170 217l-164 -217h-104l194 295h148z" />
    <glyph glyph-name="hcircumflex" unicode="&#x125;" horiz-adv-x="1130" 
d="M977 0h-154v651q0 125 -57 175.5t-166 50.5q-85 0 -165 -45t-126 -109v-723h-153v1366h153v-520q56 69 151.5 118.5t201.5 49.5q315 0 315 -316v-698zM506 1491h-105l-170 217l-163 -217h-105l195 295h147z" />
    <glyph glyph-name="Hbar" unicode="&#x126;" horiz-adv-x="1497" 
d="M1319 0h-170v627h-799v-627h-170v1026h-160v98h160v242h170v-242h799v242h170v-242h158v-98h-158v-1026zM350 778h799v248h-799v-248z" />
    <glyph glyph-name="hbar" unicode="&#x127;" horiz-adv-x="1136" 
d="M633 1096h-318v-250q56 69 151.5 118.5t201.5 49.5q315 0 315 -316v-698h-154v651q0 125 -57 175.5t-166 50.5q-85 0 -165 -45t-126 -109v-723h-153v1096h-142v98h142v172h153v-172h318v-98z" />
    <glyph glyph-name="Itilde" unicode="&#x128;" horiz-adv-x="489" 
d="M330 0h-170v1366h170v-1366zM367 1487q-41 0 -73 19.5t-52 47t-38 55t-40 47t-49 19.5q-44 0 -71.5 -44t-27.5 -132h-92q0 123 52.5 199t146.5 76q34 0 62.5 -14t46.5 -35t35.5 -45.5t31.5 -45.5t33.5 -35t42.5 -14q44 0 71 44t27 132h92q0 -123 -52 -198.5t-146 -75.5z
" />
    <glyph glyph-name="itilde" unicode="&#x129;" horiz-adv-x="460" 
d="M307 0h-153v989h153v-989zM352 1108q-41 0 -73 19.5t-52 47t-38 55t-40 47t-49 19.5q-44 0 -71 -44t-27 -132h-92q0 123 52.5 199t146.5 76q41 0 72.5 -19.5t51.5 -47.5t38 -55.5t40 -47t49 -19.5q44 0 71.5 44t27.5 132h92q0 -123 -52.5 -198.5t-146.5 -75.5z" />
    <glyph glyph-name="Imacron" unicode="&#x12a;" horiz-adv-x="489" 
d="M330 0h-170v1366h170v-1366zM616 1534h-743v98h743v-98z" />
    <glyph glyph-name="imacron" unicode="&#x12b;" horiz-adv-x="460" 
d="M307 0h-153v989h153v-989zM604 1184h-743v98h743v-98z" />
    <glyph glyph-name="Ibreve" unicode="&#x12c;" horiz-adv-x="489" 
d="M330 0h-170v1366h170v-1366zM608 1659q-62 -84 -155.5 -132t-202.5 -48q-108 0 -202.5 48t-158.5 132l78 65q48 -69 121 -108t162 -39q88 0 161.5 38.5t123.5 108.5z" />
    <glyph glyph-name="ibreve" unicode="&#x12d;" horiz-adv-x="460" 
d="M307 0h-153v989h153v-989zM592 1333q-62 -84 -156 -132t-203 -48q-107 0 -201.5 48t-158.5 132l78 66q49 -69 121 -108.5t161 -39.5q88 0 161.5 39t123.5 109z" />
    <glyph glyph-name="Iogonek" unicode="&#x12e;" horiz-adv-x="489" 
d="M371 -215l75 -43q-54 -123 -180 -123q-78 0 -131 45t-53 133q0 119 108 203h-30v1366h170v-1366q-156 -78 -156 -199q0 -51 24.5 -76.5t67.5 -25.5q77 0 105 86z" />
    <glyph glyph-name="iogonek" unicode="&#x12f;" horiz-adv-x="460" 
d="M348 -215l76 -43q-54 -123 -180 -123q-79 0 -132 45t-53 133q0 118 109 203h-14v989h153v-989q-155 -78 -155 -199q0 -51 24.5 -76.5t67.5 -25.5q76 0 104 86zM231 1130q-43 0 -73.5 30t-30.5 73t30.5 73.5t73.5 30.5t73 -30.5t30 -73.5t-30 -73t-73 -30z" />
    <glyph glyph-name="Idotaccent" unicode="&#x130;" horiz-adv-x="489" 
d="M330 0h-170v1366h170v-1366zM246 1489q-39 0 -67.5 28.5t-28.5 67.5t28.5 67.5t67.5 28.5q40 0 68 -28t28 -68t-28 -68t-68 -28z" />
    <glyph glyph-name="dotlessi" unicode="&#x131;" horiz-adv-x="460" 
d="M307 0h-153v989h153v-989z" />
    <glyph glyph-name="IJ" unicode="&#x132;" horiz-adv-x="1462" 
d="M330 0h-170v1366h170v-1366zM868 -25q-222 0 -356 158l90 129q107 -135 256 -135q125 0 200 79.5t75 207.5v952h170v-954q0 -108 -33.5 -192.5t-93 -137t-137.5 -80t-171 -27.5z" />
    <glyph glyph-name="ij" unicode="&#x133;" horiz-adv-x="923" 
d="M231 1130q-43 0 -73.5 30t-30.5 73t30.5 73.5t73.5 30.5t73 -30.5t30 -73.5t-30 -73t-73 -30zM307 0h-153v989h153v-989zM692 1130q-43 0 -73.5 30t-30.5 73t30.5 73.5t73.5 30.5t73 -30.5t30 -73.5t-30 -73t-73 -30zM475 -401q-72 0 -119.5 17t-95.5 56l53 115
q61 -61 142 -61q73 0 116 44t43 134v1085h154v-1085q0 -147 -75.5 -226t-217.5 -79z" />
    <glyph glyph-name="Jcircumflex" unicode="&#x134;" horiz-adv-x="972" 
d="M379 -25q-222 0 -356 158l90 129q107 -135 256 -135q125 0 199.5 79t74.5 208v952h170v-954q0 -143 -58.5 -243.5t-154.5 -147t-221 -46.5zM999 1491h-104l-170 217l-164 -217h-104l194 295h148z" />
    <glyph glyph-name="jcircumflex" unicode="&#x135;" horiz-adv-x="460" 
d="M14 -401q-72 0 -119.5 17t-95.5 56l54 125q61 -61 141 -61q72 0 116 42.5t44 125.5v1085h153v-1085q0 -147 -75.5 -226t-217.5 -79zM506 1139h-105l-170 217l-163 -217h-105l195 295h147z" />
    <glyph glyph-name="Kcommaaccent" unicode="&#x136;" horiz-adv-x="1241" 
d="M1198 0h-213l-518 614l-137 -155v-459h-170v1366h170v-704l604 704h213l-569 -647zM737 -283q0 -80 -41 -153.5t-104 -120.5l-66 53q45 31 79 81.5t38 94.5l-9 -1q-8 -1 -13 -1q-37 0 -61.5 25.5t-24.5 64.5t27.5 67t66.5 28q45 0 76.5 -37.5t31.5 -100.5z" />
    <glyph glyph-name="kcommaaccent" unicode="&#x137;" horiz-adv-x="1052" 
d="M1024 0h-197l-354 444l-166 -161v-283h-153v1366h153v-903l520 526h195l-438 -448zM643 -283q0 -80 -41 -153.5t-104 -120.5l-66 53q45 31 79 81.5t38 94.5l-9 -1q-9 -1 -14 -1q-37 0 -61.5 25.5t-24.5 64.5t28 67t67 28q45 0 76.5 -37.5t31.5 -100.5z" />
    <glyph glyph-name="kgreenlandic" unicode="&#x138;" horiz-adv-x="1052" 
d="M1024 0h-197l-354 444l-166 -161v-283h-153v989h153v-526l520 526h195l-438 -448z" />
    <glyph glyph-name="Lacute" unicode="&#x139;" horiz-adv-x="1009" 
d="M942 0h-805v1366h170v-1214h635v-152zM866 1786l-346 -295h-117l304 295h159z" />
    <glyph glyph-name="lacute" unicode="&#x13a;" horiz-adv-x="460" 
d="M307 0h-153v1366h153v-1366zM559 1786l-346 -295h-117l303 295h160z" />
    <glyph glyph-name="Lcommaaccent" unicode="&#x13b;" horiz-adv-x="1009" 
d="M942 0h-805v1366h170v-1214h635v-152zM618 -283q0 -80 -41 -153.5t-104 -120.5l-65 53q45 31 78.5 81.5t37.5 94.5l-8 -1q-9 -1 -14 -1q-37 0 -61.5 25.5t-24.5 64.5t27.5 67t66.5 28q45 0 76.5 -37.5t31.5 -100.5z" />
    <glyph glyph-name="lcommaaccent" unicode="&#x13c;" horiz-adv-x="460" 
d="M307 0h-153v1366h153v-1366zM348 -283q0 -80 -41 -153.5t-104 -120.5l-66 53q45 31 79 81.5t38 94.5l-9 -1q-9 -1 -14 -1q-37 0 -61.5 25.5t-24.5 64.5t28 67t67 28q45 0 76.5 -37.5t31.5 -100.5z" />
    <glyph glyph-name="Lcaron" unicode="&#x13d;" horiz-adv-x="1009" 
d="M942 0h-805v1366h170v-1214h635v-152zM702 1255q0 -80 -41 -153.5t-104 -120.5l-65 53q45 31 78.5 81.5t37.5 94.5l-8 -1q-9 -1 -14 -1q-37 0 -61.5 25.5t-24.5 64.5t27.5 67t66.5 28q45 0 76.5 -37.5t31.5 -100.5z" />
    <glyph glyph-name="lcaron" unicode="&#x13e;" horiz-adv-x="595" 
d="M307 0h-153v1366h153v-1366zM637 1255q0 -80 -41 -153.5t-104 -120.5l-66 53q45 31 79 81.5t38 94.5l-9 -1q-9 -1 -14 -1q-37 0 -61.5 25.5t-24.5 64.5t27.5 67t66.5 28q45 0 77 -37.5t32 -100.5z" />
    <glyph glyph-name="Ldot" unicode="&#x13f;" horiz-adv-x="1048" 
d="M942 0h-805v1366h170v-1214h635v-152zM864 700q0 -46 -33 -79t-79 -33t-79.5 33t-33.5 79q0 44 33.5 77.5t79.5 33.5t79 -33.5t33 -77.5z" />
    <glyph glyph-name="ldot" unicode="&#x140;" horiz-adv-x="628" 
d="M307 0h-153v1366h153v-1366zM657 502q0 -46 -33 -79.5t-79 -33.5t-79.5 33.5t-33.5 79.5q0 44 33.5 77t79.5 33t79 -33t33 -77z" />
    <glyph glyph-name="Lslash" unicode="&#x141;" horiz-adv-x="1073" 
d="M20 453v147l181 105v661h170v-563l196 112v-147l-196 -113v-503h635v-152h-805v557z" />
    <glyph glyph-name="lslash" unicode="&#x142;" horiz-adv-x="587" 
d="M20 467v123l197 112v664h154v-575l194 110v-123l-194 -110v-668h-154v580z" />
    <glyph glyph-name="Nacute" unicode="&#x143;" horiz-adv-x="1449" 
d="M1290 0h-164l-796 1090v-1090h-170v1366h174l786 -1067v1067h170v-1366zM1053 1786l-346 -295h-117l303 295h160z" />
    <glyph glyph-name="nacute" unicode="&#x144;" horiz-adv-x="1130" 
d="M981 0h-152v647q0 125 -58 177.5t-165 52.5q-86 0 -165.5 -45t-127.5 -109v-723h-153v989h153v-143q58 69 154 118.5t201 49.5q313 0 313 -320v-694zM893 1434l-346 -295h-117l303 295h160z" />
    <glyph glyph-name="Ncommaaccent" unicode="&#x145;" horiz-adv-x="1449" 
d="M1290 0h-164l-796 1090v-1090h-170v1366h174l786 -1067v1067h170v-1366zM842 -283q0 -80 -41.5 -153.5t-104.5 -120.5l-65 53q45 31 79 81.5t38 94.5l-9 -1q-9 -1 -14 -1q-37 0 -61.5 25.5t-24.5 64.5t27.5 67t66.5 28q45 0 77 -37.5t32 -100.5z" />
    <glyph glyph-name="ncommaaccent" unicode="&#x146;" horiz-adv-x="1130" 
d="M981 0h-152v647q0 125 -58 177.5t-165 52.5q-86 0 -165.5 -45t-127.5 -109v-723h-153v989h153v-143q58 69 154 118.5t201 49.5q313 0 313 -320v-694zM682 -283q0 -80 -41 -153.5t-104 -120.5l-66 53q45 31 79 81.5t38 94.5l-9 -1q-9 -1 -14 -1q-37 0 -61.5 25.5
t-24.5 64.5t27.5 67t66.5 28q45 0 77 -37.5t32 -100.5z" />
    <glyph glyph-name="Ncaron" unicode="&#x147;" horiz-adv-x="1449" 
d="M1290 0h-164l-796 1090v-1090h-170v1366h174l786 -1067v1067h170v-1366zM801 1491h-148l-200 295h104l170 -217l164 217h104z" />
    <glyph glyph-name="ncaron" unicode="&#x148;" horiz-adv-x="1130" 
d="M981 0h-152v647q0 125 -58 177.5t-165 52.5q-86 0 -165.5 -45t-127.5 -109v-723h-153v989h153v-143q58 69 154 118.5t201 49.5q313 0 313 -320v-694zM641 1139h-147l-201 295h104l170 -217l164 217h105z" />
    <glyph glyph-name="napostrophe" unicode="&#x149;" horiz-adv-x="1130" 
d="M981 0h-152v647q0 125 -58 177.5t-165 52.5q-86 0 -165.5 -45t-127.5 -109v-723h-153v989h153v-143q58 69 154 118.5t201 49.5q313 0 313 -320v-694zM330 1384q0 -80 -41.5 -153.5t-104.5 -120.5l-65 53q45 31 79 81.5t38 94.5l-9 -1q-9 -1 -14 -1q-37 0 -61.5 25.5
t-24.5 64.5t27.5 67t66.5 28q45 0 77 -37.5t32 -100.5z" />
    <glyph glyph-name="Eng" unicode="&#x14a;" horiz-adv-x="1449" 
d="M856 -401q-223 0 -356 157l90 129q107 -135 256 -135q119 0 192.5 70t79.5 188l-788 1082v-1090h-170v1366h174l786 -1067v1067h170v-1335q0 -213 -120.5 -322.5t-313.5 -109.5z" />
    <glyph glyph-name="eng" unicode="&#x14b;" horiz-adv-x="1130" 
d="M682 -401q-71 0 -118 17t-97 56l53 125q61 -61 142 -61q72 0 116.5 42.5t44.5 125.5v743q0 125 -58 177.5t-165 52.5q-86 0 -165.5 -45t-127.5 -109v-723h-153v989h153v-143q58 69 154 118.5t201 49.5q313 0 313 -320v-790q0 -147 -75.5 -226t-217.5 -79z" />
    <glyph glyph-name="Omacron" unicode="&#x14c;" horiz-adv-x="1566" 
d="M782 -25q-198 0 -353.5 92.5t-240 253.5t-84.5 361t84.5 361t240 253.5t353.5 92.5t354 -92.5t241 -253.5t85 -361t-85 -361t-241 -253.5t-354 -92.5zM782 127q150 0 265.5 72.5t177 198.5t61.5 284q0 242 -139 398.5t-365 156.5q-227 0 -364 -156t-137 -399
q0 -158 60.5 -284t175.5 -198.5t265 -72.5zM1153 1534h-743v98h743v-98z" />
    <glyph glyph-name="omacron" unicode="&#x14d;" horiz-adv-x="1171" 
d="M586 -25q-147 0 -259.5 70.5t-171.5 188.5t-59 262t59 261t171.5 187t259.5 70t259.5 -70t171 -187t58.5 -261t-58.5 -262t-171 -188.5t-259.5 -70.5zM586 113q102 0 177.5 54t112.5 139.5t37 189.5q0 103 -37 188t-112.5 139t-177.5 54t-178 -54t-113 -139.5t-37 -187.5
q0 -160 88 -271.5t240 -111.5zM956 1184h-743v98h743v-98z" />
    <glyph glyph-name="Obreve" unicode="&#x14e;" horiz-adv-x="1566" 
d="M782 -25q-198 0 -353.5 92.5t-240 253.5t-84.5 361t84.5 361t240 253.5t353.5 92.5t354 -92.5t241 -253.5t85 -361t-85 -361t-241 -253.5t-354 -92.5zM782 127q150 0 265.5 72.5t177 198.5t61.5 284q0 242 -139 398.5t-365 156.5q-227 0 -364 -156t-137 -399
q0 -158 60.5 -284t175.5 -198.5t265 -72.5zM1141 1659q-62 -84 -156 -132t-203 -48q-107 0 -201.5 48t-158.5 132l78 65q48 -69 120.5 -108t161.5 -39q88 0 161.5 38.5t123.5 108.5z" />
    <glyph glyph-name="obreve" unicode="&#x14f;" horiz-adv-x="1171" 
d="M586 -25q-147 0 -259.5 70.5t-171.5 188.5t-59 262t59 261t171.5 187t259.5 70t259.5 -70t171 -187t58.5 -261t-58.5 -262t-171 -188.5t-259.5 -70.5zM586 113q102 0 177.5 54t112.5 139.5t37 189.5q0 103 -37 188t-112.5 139t-177.5 54t-178 -54t-113 -139.5t-37 -187.5
q0 -160 88 -271.5t240 -111.5zM946 1333q-62 -84 -155.5 -132t-202.5 -48q-108 0 -202.5 48t-158.5 132l78 66q49 -69 121.5 -108.5t161.5 -39.5q88 0 161 39t123 109z" />
    <glyph glyph-name="Ohungarumlaut" unicode="&#x150;" horiz-adv-x="1566" 
d="M782 -25q-198 0 -353.5 92.5t-240 253.5t-84.5 361t84.5 361t240 253.5t353.5 92.5t354 -92.5t241 -253.5t85 -361t-85 -361t-241 -253.5t-354 -92.5zM782 127q150 0 265.5 72.5t177 198.5t61.5 284q0 242 -139 398.5t-365 156.5q-227 0 -364 -156t-137 -399
q0 -158 60.5 -284t175.5 -198.5t265 -72.5zM891 1786l-236 -295h-98l193 295h141zM1182 1786l-236 -295h-98l192 295h142z" />
    <glyph glyph-name="ohungarumlaut" unicode="&#x151;" horiz-adv-x="1171" 
d="M586 -25q-147 0 -259.5 70.5t-171.5 188.5t-59 262t59 261t171.5 187t259.5 70t259.5 -70t171 -187t58.5 -261t-58.5 -262t-171 -188.5t-259.5 -70.5zM586 113q102 0 177.5 54t112.5 139.5t37 189.5q0 103 -37 188t-112.5 139t-177.5 54t-178 -54t-113 -139.5t-37 -187.5
q0 -160 88 -271.5t240 -111.5zM694 1434l-235 -295h-99l193 295h141zM985 1434l-235 -295h-99l193 295h141z" />
    <glyph glyph-name="OE" unicode="&#x152;" horiz-adv-x="2263" 
d="M2152 0h-895v248q-74 -131 -206.5 -202t-282.5 -71q-195 0 -347 92.5t-234.5 253.5t-82.5 361t82.5 360.5t234.5 252t347 91.5q150 0 282.5 -69.5t206.5 -198.5v248h895v-152h-725v-440h711v-151h-711v-471h725v-152zM1257 459v448q-60 160 -184 244t-285 84
q-231 0 -369 -155t-138 -398q0 -118 35.5 -220t100 -176.5t160.5 -116.5t211 -42q160 0 284.5 85.5t184.5 246.5z" />
    <glyph glyph-name="oe" unicode="&#x153;" horiz-adv-x="1970" 
d="M1876 444h-799q9 -145 105.5 -243.5t249.5 -98.5q87 0 167 33t140 94l73 -100q-157 -154 -393 -154q-90 0 -165 27t-125.5 72.5t-82 89.5t-53.5 94q-17 -38 -37.5 -72t-56.5 -74.5t-77.5 -69t-103.5 -48t-132 -19.5q-147 0 -259.5 70.5t-171.5 188.5t-59 262t59 261
t171.5 187t259.5 70q87 0 160 -28.5t121.5 -75.5t78 -90t49.5 -89q19 46 50.5 91t80 90.5t120 73.5t155.5 28q146 0 255 -71t164.5 -190.5t55.5 -269.5v-39zM1075 559h651q-1 45 -13.5 90t-38.5 88t-63 76t-91.5 53.5t-118.5 20.5q-76 0 -139 -30t-101.5 -78.5t-60.5 -105
t-25 -114.5zM913 496q0 162 -88.5 271.5t-238.5 109.5t-239 -110t-89 -271q0 -163 89 -274t239 -111t238.5 111t88.5 274z" />
    <glyph glyph-name="Racute" unicode="&#x154;" horiz-adv-x="1247" 
d="M1151 0h-201l-346 543h-274v-543h-170v1366h549q190 0 310 -112.5t120 -299.5q0 -89 -29.5 -163t-79.5 -122.5t-113.5 -77t-134.5 -34.5zM688 692q121 0 198 73t77 189t-76.5 188t-198.5 72h-358v-522h358zM952 1786l-346 -295h-117l304 295h159z" />
    <glyph glyph-name="racute" unicode="&#x155;" horiz-adv-x="675" 
d="M307 0h-153v989h153v-158q64 82 149 131.5t181 49.5v-158q-36 4 -59 4q-71 0 -154 -48.5t-117 -109.5v-700zM721 1434l-346 -295h-117l303 295h160z" />
    <glyph glyph-name="Rcommaaccent" unicode="&#x156;" horiz-adv-x="1247" 
d="M1151 0h-201l-346 543h-274v-543h-170v1366h549q190 0 310 -112.5t120 -299.5q0 -89 -29.5 -163t-79.5 -122.5t-113.5 -77t-134.5 -34.5zM688 692q121 0 198 73t77 189t-76.5 188t-198.5 72h-358v-522h358zM741 -283q0 -80 -41 -153.5t-104 -120.5l-66 53q45 31 79 81.5
t38 94.5l-9 -1q-8 -1 -13 -1q-37 0 -61.5 25.5t-24.5 64.5t27.5 67t66.5 28q45 0 76.5 -37.5t31.5 -100.5z" />
    <glyph glyph-name="rcommaaccent" unicode="&#x157;" horiz-adv-x="675" 
d="M307 0h-153v989h153v-158q64 82 149 131.5t181 49.5v-158q-36 4 -59 4q-71 0 -154 -48.5t-117 -109.5v-700zM455 -283q0 -80 -41.5 -153.5t-104.5 -120.5l-65 53q45 31 78.5 81.5t37.5 94.5l-8 -1q-9 -1 -14 -1q-37 0 -61.5 25.5t-24.5 64.5t27.5 67t66.5 28
q45 0 77 -37.5t32 -100.5z" />
    <glyph glyph-name="Rcaron" unicode="&#x158;" horiz-adv-x="1247" 
d="M1151 0h-201l-346 543h-274v-543h-170v1366h549q190 0 310 -112.5t120 -299.5q0 -89 -29.5 -163t-79.5 -122.5t-113.5 -77t-134.5 -34.5zM688 692q121 0 198 73t77 189t-76.5 188t-198.5 72h-358v-522h358zM702 1491h-147l-201 295h105l170 -217l164 217h104z" />
    <glyph glyph-name="rcaron" unicode="&#x159;" horiz-adv-x="675" 
d="M307 0h-153v989h153v-158q64 82 149 131.5t181 49.5v-158q-36 4 -59 4q-71 0 -154 -48.5t-117 -109.5v-700zM469 1139h-147l-201 295h104l170 -217l164 217h105z" />
    <glyph glyph-name="Sacute" unicode="&#x15a;" horiz-adv-x="1200" 
d="M602 -25q-169 0 -301.5 58.5t-222.5 159.5l102 131q74 -86 183.5 -141.5t244.5 -55.5q87 0 152.5 22t101 58t52 75.5t16.5 82.5q0 56 -27.5 98.5t-74.5 69t-107.5 47t-127.5 38.5t-134.5 37t-128 48t-107.5 67.5t-74.5 99t-27.5 138.5q0 168 133.5 274.5t337.5 106.5
q300 0 483 -193l-102 -125q-145 164 -395 164q-122 0 -201.5 -60.5t-79.5 -156.5q0 -49 27.5 -86t74.5 -60.5t107.5 -42.5t128 -37t134.5 -38.5t127.5 -52t107.5 -73t74.5 -105.5t27.5 -146q0 -78 -28 -147t-85 -127.5t-157.5 -93t-233.5 -34.5zM926 1786l-346 -295h-117
l303 295h160z" />
    <glyph glyph-name="sacute" unicode="&#x15b;" horiz-adv-x="952" 
d="M469 -25q-249 0 -399 156l77 111q53 -60 141 -101t185 -41q111 0 173.5 47t62.5 123q0 48 -34 81t-88 51t-119 33t-130.5 35t-119.5 49t-88 82.5t-34 127.5q0 122 98 203.5t269 81.5q226 0 366 -144l-71 -106q-46 56 -123.5 90.5t-171.5 34.5q-99 0 -159 -44.5
t-60 -111.5q0 -43 34 -72.5t87.5 -46t119 -31t131 -35.5t119 -51.5t87.5 -87.5t34 -135q0 -130 -101.5 -214.5t-285.5 -84.5zM805 1434l-346 -295h-117l303 295h160z" />
    <glyph glyph-name="Scircumflex" unicode="&#x15c;" horiz-adv-x="1200" 
d="M856 1491h-104l-170 217l-164 -217h-105l195 295h147zM602 -25q-169 0 -301.5 58.5t-222.5 159.5l102 131q74 -86 183.5 -141.5t244.5 -55.5q87 0 152.5 22t101 58t52 75.5t16.5 82.5q0 56 -27.5 98.5t-74.5 69t-107.5 47t-127.5 38.5t-134.5 37t-128 48t-107.5 67.5
t-74.5 99t-27.5 138.5q0 168 133.5 274.5t337.5 106.5q300 0 483 -193l-102 -125q-145 164 -395 164q-122 0 -201.5 -60.5t-79.5 -156.5q0 -49 27.5 -86t74.5 -60.5t107.5 -42.5t128 -37t134.5 -38.5t127.5 -52t107.5 -73t74.5 -105.5t27.5 -146q0 -78 -28 -147t-85 -127.5
t-157.5 -93t-233.5 -34.5z" />
    <glyph glyph-name="scircumflex" unicode="&#x15d;" horiz-adv-x="952" 
d="M469 -25q-249 0 -399 156l77 111q53 -60 141 -101t185 -41q111 0 173.5 47t62.5 123q0 48 -34 81t-88 51t-119 33t-130.5 35t-119.5 49t-88 82.5t-34 127.5q0 122 98 203.5t269 81.5q226 0 366 -144l-71 -106q-46 56 -123.5 90.5t-171.5 34.5q-99 0 -159 -44.5
t-60 -111.5q0 -43 34 -72.5t87.5 -46t119 -31t131 -35.5t119 -51.5t87.5 -87.5t34 -135q0 -130 -101.5 -214.5t-285.5 -84.5zM739 1139h-104l-170 217l-164 -217h-104l194 295h148z" />
    <glyph glyph-name="Scedilla" unicode="&#x15e;" horiz-adv-x="1200" 
d="M590 -391q-63 0 -118.5 17.5t-88.5 43.5l39 78q73 -59 164 -59q53 0 89 23t36 63q0 33 -19.5 52t-56.5 19q-51 0 -78 -34l-68 38l48 127q-288 23 -459 216l102 131q74 -86 183.5 -141.5t244.5 -55.5q87 0 152.5 22t101 58t52 75.5t16.5 82.5q0 56 -27.5 98.5t-74.5 69
t-107.5 47t-127.5 38.5t-134.5 37t-128 48t-107.5 67.5t-74.5 99t-27.5 138.5q0 168 133.5 274.5t337.5 106.5q300 0 483 -193l-102 -125q-145 164 -395 164q-122 0 -201.5 -60.5t-79.5 -156.5q0 -49 27.5 -86t74.5 -60.5t107.5 -42.5t128 -37t134.5 -38.5t127.5 -52
t107.5 -73t74.5 -105.5t27.5 -146q0 -76 -26.5 -143.5t-81 -125.5t-150 -93.5t-221.5 -39.5l-35 -88q29 23 76 23q59 0 97 -37.5t38 -99.5q0 -74 -61 -119t-152 -45z" />
    <glyph glyph-name="scedilla" unicode="&#x15f;" horiz-adv-x="952" 
d="M467 -391q-63 0 -118.5 17.5t-88.5 43.5l39 78q73 -59 164 -59q53 0 89 23t36 63q0 33 -19.5 52t-56.5 19q-51 0 -78 -34l-67 38l47 127q-211 15 -344 154l77 111q53 -60 141 -101t185 -41q111 0 173.5 47t62.5 123q0 48 -34 81t-88 51t-119 33t-130.5 35t-119.5 49
t-88 82.5t-34 127.5q0 122 98 203.5t269 81.5q226 0 366 -144l-71 -106q-46 56 -123.5 90.5t-171.5 34.5q-99 0 -159 -44.5t-60 -111.5q0 -43 34 -72.5t87.5 -46t119 -31t131 -35.5t119 -51.5t87.5 -87.5t34 -135q0 -124 -92.5 -207t-259.5 -90l-35 -90q29 23 76 23
q59 0 97 -37.5t38 -99.5q0 -74 -61 -119t-152 -45z" />
    <glyph glyph-name="Scaron" unicode="&#x160;" horiz-adv-x="1200" 
d="M662 1491h-148l-201 295h105l170 -217l164 217h104zM602 -25q-169 0 -301.5 58.5t-222.5 159.5l102 131q74 -86 183.5 -141.5t244.5 -55.5q87 0 152.5 22t101 58t52 75.5t16.5 82.5q0 56 -27.5 98.5t-74.5 69t-107.5 47t-127.5 38.5t-134.5 37t-128 48t-107.5 67.5
t-74.5 99t-27.5 138.5q0 168 133.5 274.5t337.5 106.5q300 0 483 -193l-102 -125q-145 164 -395 164q-122 0 -201.5 -60.5t-79.5 -156.5q0 -49 27.5 -86t74.5 -60.5t107.5 -42.5t128 -37t134.5 -38.5t127.5 -52t107.5 -73t74.5 -105.5t27.5 -146q0 -78 -28 -147t-85 -127.5
t-157.5 -93t-233.5 -34.5z" />
    <glyph glyph-name="scaron" unicode="&#x161;" horiz-adv-x="952" 
d="M469 -25q-249 0 -399 156l77 111q53 -60 141 -101t185 -41q111 0 173.5 47t62.5 123q0 48 -34 81t-88 51t-119 33t-130.5 35t-119.5 49t-88 82.5t-34 127.5q0 122 98 203.5t269 81.5q226 0 366 -144l-71 -106q-46 56 -123.5 90.5t-171.5 34.5q-99 0 -159 -44.5
t-60 -111.5q0 -43 34 -72.5t87.5 -46t119 -31t131 -35.5t119 -51.5t87.5 -87.5t34 -135q0 -130 -101.5 -214.5t-285.5 -84.5zM545 1139h-148l-200 295h104l170 -217l164 217h104z" />
    <glyph glyph-name="Tcommaaccent" unicode="&#x162;" horiz-adv-x="1167" 
d="M668 0h-170v1214h-432v152h1036v-152h-434v-1214zM700 -283q0 -80 -41 -153.5t-104 -120.5l-66 53q45 31 79 81.5t38 94.5l-8 -1q-9 -1 -14 -1q-37 0 -61.5 25.5t-24.5 64.5t27.5 67t66.5 28q45 0 76.5 -37.5t31.5 -100.5z" />
    <glyph glyph-name="Tcommaaccent" unicode="&#x21a;" horiz-adv-x="1167" 
d="M668 0h-170v1214h-432v152h1036v-152h-434v-1214zM700 -283q0 -80 -41 -153.5t-104 -120.5l-66 53q45 31 79 81.5t38 94.5l-8 -1q-9 -1 -14 -1q-37 0 -61.5 25.5t-24.5 64.5t27.5 67t66.5 28q45 0 76.5 -37.5t31.5 -100.5z" />
    <glyph glyph-name="tcommaaccent" unicode="&#x163;" horiz-adv-x="602" 
d="M406 -25q-109 0 -165.5 60.5t-56.5 171.5v647h-164v135h164v271h156v-271h201v-135h-201v-614q0 -58 25 -92.5t73 -34.5q68 0 105 43l45 -117q-67 -64 -182 -64zM418 -283q0 -80 -41.5 -153.5t-104.5 -120.5l-65 53q45 31 79 81.5t38 94.5l-9 -1q-9 -1 -14 -1
q-37 0 -61.5 25.5t-24.5 64.5t27.5 67t66.5 28q45 0 77 -37.5t32 -100.5z" />
    <glyph glyph-name="tcommaaccent" unicode="&#x21b;" horiz-adv-x="602" 
d="M406 -25q-109 0 -165.5 60.5t-56.5 171.5v647h-164v135h164v271h156v-271h201v-135h-201v-614q0 -58 25 -92.5t73 -34.5q68 0 105 43l45 -117q-67 -64 -182 -64zM418 -283q0 -80 -41.5 -153.5t-104.5 -120.5l-65 53q45 31 79 81.5t38 94.5l-9 -1q-9 -1 -14 -1
q-37 0 -61.5 25.5t-24.5 64.5t27.5 67t66.5 28q45 0 77 -37.5t32 -100.5z" />
    <glyph glyph-name="Tcaron" unicode="&#x164;" horiz-adv-x="1167" 
d="M668 0h-170v1214h-432v152h1036v-152h-434v-1214zM659 1491h-147l-201 295h105l170 -217l164 217h104z" />
    <glyph glyph-name="tcaron" unicode="&#x165;" horiz-adv-x="641" 
d="M406 -25q-109 0 -165.5 60.5t-56.5 171.5v647h-164v135h164v271h156v-271h201v-135h-201v-614q0 -58 25 -92.5t73 -34.5q68 0 105 43l45 -117q-67 -64 -182 -64zM666 1384q0 -80 -41.5 -153.5t-104.5 -120.5l-65 53q45 31 78.5 81.5t37.5 94.5l-9 -1q-8 -1 -13 -1
q-37 0 -61.5 25.5t-24.5 64.5t27.5 67t66.5 28q45 0 77 -37.5t32 -100.5z" />
    <glyph glyph-name="Tbar" unicode="&#x166;" horiz-adv-x="1167" 
d="M668 0h-170v602h-308v98h308v514h-432v152h1036v-152h-434v-514h311v-98h-311v-602z" />
    <glyph glyph-name="tbar" unicode="&#x167;" horiz-adv-x="602" 
d="M481 465h-141v-225q0 -58 25 -92.5t73 -34.5q68 0 105 43l45 -117q-67 -64 -182 -64q-109 0 -165.5 60.5t-56.5 171.5v258h-164v98h164v291h-164v135h164v271h156v-271h201v-135h-201v-291h141v-98z" />
    <glyph glyph-name="Utilde" unicode="&#x168;" horiz-adv-x="1435" 
d="M717 -25q-271 0 -414 148.5t-143 406.5v836h172v-831q0 -191 99.5 -299.5t285.5 -108.5t286.5 109t100.5 299v831h172v-834q0 -261 -143 -409t-416 -148zM844 1487q-41 0 -73 19.5t-52 47t-38 55t-40 47t-49 19.5q-44 0 -71 -44t-27 -132h-93q0 123 52.5 199t146.5 76
q34 0 62.5 -14t46.5 -35t35.5 -45.5t31.5 -45.5t33.5 -35t42.5 -14q44 0 71 44t27 132h92q0 -123 -52 -198.5t-146 -75.5z" />
    <glyph glyph-name="utilde" unicode="&#x169;" horiz-adv-x="1128" 
d="M975 0h-154v139q-62 -70 -155 -117t-197 -47q-315 0 -315 316v698h153v-651q0 -124 57 -174.5t166 -50.5q86 0 166 43t125 106v727h154v-989zM686 1135q-41 0 -73 19.5t-52 47t-38 55t-40 47t-49 19.5q-44 0 -71 -44t-27 -132h-92q0 123 52 198.5t146 75.5q41 0 73 -19.5
t52 -47t38 -55t40 -47t49 -19.5q44 0 71.5 44t27.5 132h92q0 -123 -52.5 -198.5t-146.5 -75.5z" />
    <glyph glyph-name="Umacron" unicode="&#x16a;" horiz-adv-x="1435" 
d="M717 -25q-271 0 -414 148.5t-143 406.5v836h172v-831q0 -191 99.5 -299.5t285.5 -108.5t286.5 109t100.5 299v831h172v-834q0 -261 -143 -409t-416 -148zM1090 1534h-744v98h744v-98z" />
    <glyph glyph-name="umacron" unicode="&#x16b;" horiz-adv-x="1128" 
d="M975 0h-154v139q-62 -70 -155 -117t-197 -47q-315 0 -315 316v698h153v-651q0 -124 57 -174.5t166 -50.5q86 0 166 43t125 106v727h154v-989zM936 1184h-743v98h743v-98z" />
    <glyph glyph-name="Ubreve" unicode="&#x16c;" horiz-adv-x="1435" 
d="M717 -25q-271 0 -414 148.5t-143 406.5v836h172v-831q0 -191 99.5 -299.5t285.5 -108.5t286.5 109t100.5 299v831h172v-834q0 -261 -143 -409t-416 -148zM1083 1659q-62 -84 -155.5 -132t-202.5 -48q-107 0 -201.5 48t-158.5 132l77 65q48 -69 121 -108t162 -39
q88 0 161.5 38.5t123.5 108.5z" />
    <glyph glyph-name="ubreve" unicode="&#x16d;" horiz-adv-x="1128" 
d="M975 0h-154v139q-62 -70 -155 -117t-197 -47q-315 0 -315 316v698h153v-651q0 -124 57 -174.5t166 -50.5q86 0 166 43t125 106v727h154v-989zM928 1333q-62 -84 -156 -132t-203 -48q-107 0 -201.5 48t-158.5 132l78 66q49 -69 121 -108.5t161 -39.5q88 0 161.5 39
t123.5 109z" />
    <glyph glyph-name="Uring" unicode="&#x16e;" horiz-adv-x="1435" 
d="M717 -25q-271 0 -414 148.5t-143 406.5v836h172v-831q0 -191 99.5 -299.5t285.5 -108.5t286.5 109t100.5 299v831h172v-834q0 -261 -143 -409t-416 -148zM721 1417q-83 0 -143 60t-60 143t60 143t143 60t141 -59.5t58 -143.5t-58 -143.5t-141 -59.5zM721 1499
q49 0 84 35.5t35 85.5t-35 85.5t-84 35.5q-51 0 -86 -35.5t-35 -85.5t35 -85.5t86 -35.5z" />
    <glyph glyph-name="uring" unicode="&#x16f;" horiz-adv-x="1128" 
d="M975 0h-154v139q-62 -70 -155 -117t-197 -47q-315 0 -315 316v698h153v-651q0 -124 57 -174.5t166 -50.5q86 0 166 43t125 106v727h154v-989zM565 1130q-83 0 -143 60t-60 143t60 143t143 60t141 -59.5t58 -143.5t-58 -143.5t-141 -59.5zM565 1212q49 0 84 35.5t35 85.5
t-35 85.5t-84 35.5q-51 0 -86 -35.5t-35 -85.5t35 -85.5t86 -35.5z" />
    <glyph glyph-name="Uhungarumlaut" unicode="&#x170;" horiz-adv-x="1435" 
d="M717 -25q-271 0 -414 148.5t-143 406.5v836h172v-831q0 -191 99.5 -299.5t285.5 -108.5t286.5 109t100.5 299v831h172v-834q0 -261 -143 -409t-416 -148zM827 1786l-235 -295h-98l192 295h141zM1118 1786l-235 -295h-99l193 295h141z" />
    <glyph glyph-name="uhungarumlaut" unicode="&#x171;" horiz-adv-x="1128" 
d="M975 0h-154v139q-62 -70 -155 -117t-197 -47q-315 0 -315 316v698h153v-651q0 -124 57 -174.5t166 -50.5q86 0 166 43t125 106v727h154v-989zM674 1434l-236 -295h-98l192 295h142zM965 1434l-236 -295h-98l192 295h142z" />
    <glyph glyph-name="Uogonek" unicode="&#x172;" horiz-adv-x="1435" 
d="M954 -215l76 -43q-54 -123 -180 -123q-78 0 -131 45t-53 133q0 99 79 178h-28q-271 0 -414 148.5t-143 406.5v836h172v-831q0 -191 99.5 -299.5t285.5 -108.5t286.5 109t100.5 299v831h172v-834q0 -208 -92.5 -345.5t-270.5 -186.5q-155 -78 -155 -199q0 -51 24.5 -76.5
t67.5 -25.5q76 0 104 86z" />
    <glyph glyph-name="uogonek" unicode="&#x173;" horiz-adv-x="1128" 
d="M1016 -215l76 -43q-54 -123 -181 -123q-78 0 -131 45t-53 133q0 118 109 203h-15v139q-62 -70 -155 -117t-197 -47q-315 0 -315 316v698h153v-651q0 -124 57 -174.5t166 -50.5q86 0 166 43t125 106v727h154v-989q-156 -78 -156 -199q0 -51 24.5 -76.5t67.5 -25.5
q77 0 105 86z" />
    <glyph glyph-name="Wcircumflex" unicode="&#x174;" horiz-adv-x="1808" 
d="M1389 0h-185l-301 1102l-301 -1102h-184l-389 1366h188l303 -1139l314 1139h141l313 -1139l301 1139h191zM1176 1491h-105l-170 217l-164 -217h-104l194 295h148z" />
    <glyph glyph-name="wcircumflex" unicode="&#x175;" horiz-adv-x="1503" 
d="M1165 0h-155l-258 795l-258 -795h-154l-315 989h159l242 -788l260 788h133l258 -788l242 788h162zM1024 1139h-104l-170 217l-164 -217h-105l195 295h147z" />
    <glyph glyph-name="Ycircumflex" unicode="&#x176;" horiz-adv-x="1282" 
d="M915 1491h-104l-170 217l-164 -217h-104l194 295h148zM727 0h-170v578l-539 788h199l424 -635l424 635h199l-537 -788v-578z" />
    <glyph glyph-name="ycircumflex" unicode="&#x177;" horiz-adv-x="1003" 
d="M100 -387l23 139q37 -16 84 -16q54 0 88 22.5t59 81.5l66 150l-414 999h168l328 -811l329 811h166l-495 -1190q-81 -197 -291 -200q-64 0 -111 14zM774 1139h-104l-170 217l-164 -217h-105l195 295h147z" />
    <glyph glyph-name="Ydieresis" unicode="&#x178;" horiz-adv-x="1282" 
d="M954 1583q0 -38 -28 -66t-68 -28q-38 0 -66 28t-28 66q0 39 27.5 66.5t66.5 27.5q40 0 68 -27t28 -67zM530 1583q0 -38 -28 -66t-66 -28q-40 0 -68 28t-28 66q0 40 28 67t68 27q39 0 66.5 -27.5t27.5 -66.5zM727 0h-170v578l-539 788h199l424 -635l424 635h199l-537 -788
v-578z" />
    <glyph glyph-name="Zacute" unicode="&#x179;" horiz-adv-x="1198" 
d="M1100 0h-1002v141l768 1073h-768v152h987v-141l-770 -1073h785v-152zM926 1786l-346 -295h-117l303 295h160z" />
    <glyph glyph-name="zacute" unicode="&#x17a;" horiz-adv-x="966" 
d="M860 0h-754v121l545 733h-545v135h746v-117l-549 -737h557v-135zM809 1434l-346 -295h-117l303 295h160z" />
    <glyph glyph-name="Zdotaccent" unicode="&#x17b;" horiz-adv-x="1198" 
d="M1100 0h-1002v141l768 1073h-768v152h987v-141l-770 -1073h785v-152zM594 1489q-39 0 -67.5 28.5t-28.5 67.5t28.5 67.5t67.5 28.5q40 0 68 -28t28 -68t-28 -68t-68 -28z" />
    <glyph glyph-name="zdotaccent" unicode="&#x17c;" horiz-adv-x="966" 
d="M860 0h-754v121l545 733h-545v135h746v-117l-549 -737h557v-135zM481 1174q-39 0 -67.5 28.5t-28.5 67.5t28.5 67.5t67.5 28.5q40 0 68.5 -28t28.5 -68t-28.5 -68t-68.5 -28z" />
    <glyph glyph-name="Zcaron" unicode="&#x17d;" horiz-adv-x="1198" 
d="M676 1491h-148l-200 295h104l170 -217l164 217h104zM1100 0h-1002v141l768 1073h-768v152h987v-141l-770 -1073h785v-152z" />
    <glyph glyph-name="zcaron" unicode="&#x17e;" horiz-adv-x="966" 
d="M860 0h-754v121l545 733h-545v135h746v-117l-549 -737h557v-135zM547 1139h-148l-200 295h104l170 -217l164 217h104z" />
    <glyph glyph-name="longs" unicode="&#x17f;" horiz-adv-x="581" 
d="M350 0h-153v854h-164v135h164v76q0 151 77 236t209 85q129 0 209 -75l-63 -99q-55 48 -121 48q-77 0 -117.5 -50t-40.5 -145v-1065z" />
    <glyph glyph-name="florin" unicode="&#x192;" horiz-adv-x="884" 
d="M223 -330h-172l189 850h-140v139h168l94 418q31 142 128 225.5t229 83.5q124 0 192 -73l-75 -125q-36 47 -101 47q-76 0 -131.5 -50t-75.5 -138l-86 -388h285v-139h-313z" />
    <glyph glyph-name="AEacute" unicode="&#x1fc;" horiz-adv-x="1941" 
d="M1829 0h-895v305h-537l-188 -305h-195l852 1366h963v-152h-725v-440h711v-151h-711v-471h725v-152zM934 455v737l-455 -737h455zM1341 1786l-346 -295h-116l303 295h159z" />
    <glyph glyph-name="aeacute" unicode="&#x1fd;" horiz-adv-x="1820" 
d="M1726 444h-798q9 -145 104 -241.5t250 -96.5q87 0 167.5 32t139.5 93l74 -102q-157 -154 -393 -154q-263 0 -410 205q-62 -87 -163 -146t-244 -59q-66 0 -128.5 21.5t-113 61.5t-81 103.5t-30.5 141.5q0 153 100.5 239.5t243.5 86.5q209 0 328 -131v176q0 96 -70 151.5
t-180 55.5q-176 0 -303 -138l-72 107q157 164 396 164q139 0 225 -55t111 -162q56 98 150.5 157.5t227.5 59.5q214 0 341.5 -151t127.5 -380v-39zM926 559h649q-1 57 -21 113t-58 105t-102 79.5t-145 30.5q-76 0 -138 -30t-100.5 -78.5t-60 -105t-24.5 -114.5zM803 260
q-31 75 -31 133q-43 60 -115.5 92.5t-154.5 32.5q-108 0 -177 -60.5t-69 -154.5q0 -95 68.5 -156t177.5 -61q57 0 109 15t104.5 55.5t87.5 103.5zM1204 1434l-346 -295h-117l303 295h160z" />
    <glyph glyph-name="Oslashacute" unicode="&#x1fe;" horiz-adv-x="1566" 
d="M1114 1786l-346 -295h-117l303 295h160zM782 -25q-194 0 -352 93l-45 -68h-137l90 133q-111 96 -172.5 238t-61.5 311q0 200 84.5 361t240 253.5t353.5 92.5q189 0 342 -86l43 63h138l-86 -129q115 -96 179 -240.5t64 -314.5q0 -200 -85 -361t-241 -253.5t-354 -92.5z
M782 127q150 0 265.5 72.5t177 198.5t61.5 284q0 128 -41.5 236.5t-118.5 183.5l-608 -903q113 -72 264 -72zM281 682q0 -257 149 -412l606 901q-116 66 -254 66q-227 0 -364 -156t-137 -399z" />
    <glyph glyph-name="oslashacute" unicode="&#x1ff;" horiz-adv-x="1171" 
d="M913 1434l-346 -295h-116l303 295h159zM242 0h-111l98 125q-133 145 -133 371q0 144 59 261t171.5 187t259.5 70q160 0 280 -84l47 59h113l-92 -117q68 -71 104.5 -168.5t36.5 -207.5q0 -144 -58.5 -262t-171 -188.5t-259.5 -70.5q-168 0 -291 93zM586 113
q102 0 177.5 54t112.5 139.5t37 189.5q0 151 -77 254l-451 -568q81 -69 201 -69zM258 496q0 -147 70 -248l446 567q-78 62 -188 62q-102 0 -178 -54t-113 -139.5t-37 -187.5z" />
    <glyph glyph-name="Scommaaccent" unicode="&#x218;" horiz-adv-x="1214" 
d="M612 -25q-169 0 -301.5 58.5t-222.5 159.5l102 131q74 -86 183.5 -141.5t244.5 -55.5q87 0 152.5 22t101 58t52 75.5t16.5 82.5q0 56 -27.5 98.5t-74.5 69t-107.5 47t-127.5 38.5t-134.5 37t-128 48t-107.5 67.5t-74.5 99t-27.5 138.5q0 168 133.5 274.5t337.5 106.5
q300 0 483 -193l-102 -125q-145 164 -395 164q-122 0 -201.5 -60.5t-79.5 -156.5q0 -49 27.5 -86t74.5 -60.5t107.5 -42.5t128 -37t134.5 -38.5t127.5 -52t107.5 -73t74.5 -105.5t27.5 -146q0 -78 -28 -147t-85 -127.5t-157.5 -93t-233.5 -34.5zM717 -283
q0 -80 -41.5 -153.5t-104.5 -120.5l-65 53q45 31 79 81.5t38 94.5l-9 -1q-9 -1 -14 -1q-37 0 -61.5 25.5t-24.5 64.5t27.5 67t66.5 28q45 0 77 -37.5t32 -100.5z" />
    <glyph glyph-name="scommaaccent" unicode="&#x219;" horiz-adv-x="958" 
d="M469 -25q-249 0 -399 156l77 111q53 -60 141 -101t185 -41q111 0 173.5 47t62.5 123q0 48 -34 81t-88 51t-119 33t-130.5 35t-119.5 49t-88 82.5t-34 127.5q0 122 98 203.5t269 81.5q226 0 366 -144l-71 -106q-46 56 -123.5 90.5t-171.5 34.5q-99 0 -159 -44.5
t-60 -111.5q0 -43 34 -72.5t87.5 -46t119 -31t131 -35.5t119 -51.5t87.5 -87.5t34 -135q0 -130 -101.5 -214.5t-285.5 -84.5zM596 -283q0 -80 -41 -153.5t-104 -120.5l-66 53q45 31 79 81.5t38 94.5l-9 -1q-9 -1 -14 -1q-37 0 -61.5 25.5t-24.5 64.5t27.5 67t66.5 28
q45 0 77 -37.5t32 -100.5z" />
    <glyph glyph-name="hsuperior" unicode="&#x2b0;" horiz-adv-x="815" 
d="M692 668h-119v413q0 82 -37 115t-108 33q-55 0 -105 -27.5t-81 -66.5v-467h-119v888h119v-335q38 43 101 74.5t134 31.5q215 0 215 -217v-442z" />
    <glyph glyph-name="hsuperior" unicode="&#xf637;" horiz-adv-x="815" 
d="M692 668h-119v413q0 82 -37 115t-108 33q-55 0 -105 -27.5t-81 -66.5v-467h-119v888h119v-335q38 43 101 74.5t134 31.5q215 0 215 -217v-442z" />
    <glyph glyph-name="circumflex" unicode="&#x2c6;" horiz-adv-x="542" 
d="M543 1139h-105l-170 217l-164 -217h-104l195 295h147z" />
    <glyph glyph-name="caron" unicode="&#x2c7;" horiz-adv-x="542" 
d="M348 1139h-147l-201 295h104l170 -217l164 217h105z" />
    <glyph glyph-name="breve" unicode="&#x2d8;" horiz-adv-x="718" 
d="M719 1333q-62 -84 -156 -132t-203 -48q-107 0 -201.5 48t-158.5 132l78 66q49 -69 121 -108.5t161 -39.5q88 0 161.5 39t123.5 109z" />
    <glyph glyph-name="dotaccent" unicode="&#x2d9;" horiz-adv-x="229" 
d="M115 1174q-39 0 -68 28.5t-29 67.5t29 67.5t68 28.5q40 0 68 -28t28 -68t-28 -68t-68 -28z" />
    <glyph glyph-name="ring" unicode="&#x2da;" horiz-adv-x="401" 
d="M203 1135q-83 0 -143 59.5t-60 142.5t60 143t143 60t140.5 -59.5t57.5 -143.5t-57.5 -143t-140.5 -59zM203 1217q49 0 84 35t35 85t-35 85.5t-84 35.5q-51 0 -86 -35.5t-35 -85.5t35 -85t86 -35z" />
    <glyph glyph-name="ogonek" unicode="&#x2db;" horiz-adv-x="364" 
d="M289 -215l76 -43q-54 -123 -181 -123q-78 0 -131 45t-53 133q0 75 49 141.5t131 108.5l68 -47q-156 -78 -156 -199q0 -51 24.5 -76.5t67.5 -25.5q77 0 105 86z" />
    <glyph glyph-name="tilde" unicode="&#x2dc;" horiz-adv-x="641" 
d="M442 1135q-41 0 -73 19.5t-52 47t-38 55t-40 47t-49 19.5q-44 0 -71 -44t-27 -132h-92q0 123 52.5 198.5t146.5 75.5q41 0 73 -19.5t52 -47t38 -55t40 -47t49 -19.5q44 0 71 44t27 132h92q0 -123 -52.5 -198.5t-146.5 -75.5z" />
    <glyph glyph-name="hungarumlaut" unicode="&#x2dd;" horiz-adv-x="624" 
d="M334 1434l-236 -295h-98l193 295h141zM625 1434l-236 -295h-98l192 295h142z" />
    <glyph glyph-name="Delta" unicode="&#x394;" horiz-adv-x="1347" 
d="M1329 0h-1311l551 1366h211zM1085 152l-411 1040l-412 -1040h823z" />
    <glyph glyph-name="Delta" unicode="&#x2206;" horiz-adv-x="1347" 
d="M1329 0h-1311l551 1366h211zM1085 152l-411 1040l-412 -1040h823z" />
    <glyph glyph-name="Omega" unicode="&#x3a9;" horiz-adv-x="1566" 
d="M141 0v152h277q-139 91 -226.5 232t-87.5 329q0 195 85 349t239.5 240.5t353.5 86.5q150 0 277 -50.5t215.5 -140t138 -214.5t49.5 -271q0 -187 -87 -328.5t-226 -232.5h276v-152h-491v152q68 17 130 60.5t112.5 109.5t80 160t29.5 202q0 153 -57 276.5t-173 199
t-274 75.5q-118 0 -214.5 -43.5t-158 -119t-95 -175t-33.5 -213.5q0 -108 29.5 -202t80 -160t112.5 -109.5t130 -60.5v-152h-492z" />
    <glyph glyph-name="Omega" unicode="&#x2126;" horiz-adv-x="1566" 
d="M141 0v152h277q-139 91 -226.5 232t-87.5 329q0 195 85 349t239.5 240.5t353.5 86.5q150 0 277 -50.5t215.5 -140t138 -214.5t49.5 -271q0 -187 -87 -328.5t-226 -232.5h276v-152h-491v152q68 17 130 60.5t112.5 109.5t80 160t29.5 202q0 153 -57 276.5t-173 199
t-274 75.5q-118 0 -214.5 -43.5t-158 -119t-95 -175t-33.5 -213.5q0 -108 29.5 -202t80 -160t112.5 -109.5t130 -60.5v-152h-492z" />
    <glyph glyph-name="pi" unicode="&#x3c0;" horiz-adv-x="1148" 
d="M926 0h-156v887h-391v-887h-156v887h-157v137h1017v-137h-157v-887z" />
    <glyph glyph-name="endash" unicode="&#x2013;" horiz-adv-x="1214" 
d="M1153 428h-1092v135h1092v-135z" />
    <glyph glyph-name="emdash" unicode="&#x2014;" horiz-adv-x="1705" 
d="M1645 428h-1584v135h1584v-135z" />
    <glyph glyph-name="quoteleft" unicode="&#x2018;" horiz-adv-x="471" 
d="M98 1079q0 90 46 172.5t118 134.5l78 -61q-50 -33 -88.5 -87t-44.5 -103q1 0 12 2t17 2q41 0 69.5 -30.5t28.5 -74.5q0 -46 -31.5 -78t-77.5 -32q-54 0 -90.5 41.5t-36.5 113.5z" />
    <glyph glyph-name="quoteright" unicode="&#x2019;" horiz-adv-x="471" 
d="M360 1231q0 -91 -46 -173.5t-119 -135.5l-78 63q50 33 88.5 87.5t44.5 103.5q-10 -5 -29 -5q-41 0 -69.5 30.5t-28.5 74.5q0 45 31.5 77.5t76.5 32.5q55 0 92 -41.5t37 -113.5z" />
    <glyph glyph-name="quotesinglbase" unicode="&#x201a;" horiz-adv-x="471" 
d="M360 49q0 -91 -46 -173.5t-119 -135.5l-78 63q51 33 89 87t44 104q-8 -4 -29 -4q-41 0 -69.5 30t-28.5 74q0 45 31.5 78t76.5 33q55 0 92 -42.5t37 -113.5z" />
    <glyph glyph-name="quotedblleft" unicode="&#x201c;" horiz-adv-x="798" 
d="M111 1079q0 91 46 173.5t119 133.5l76 -61q-50 -32 -87.5 -86.5t-43.5 -103.5l11 2q10 2 16 2q43 0 71.5 -30.5t28.5 -74.5q0 -46 -32 -78t-78 -32q-54 0 -90.5 41.5t-36.5 113.5zM438 1079q0 91 46.5 173.5t119.5 133.5l76 -61q-50 -32 -87.5 -86.5t-43.5 -103.5
q1 0 11 2t15 2q43 0 72 -30.5t29 -74.5q0 -46 -32.5 -78t-78.5 -32q-54 0 -90.5 41.5t-36.5 113.5z" />
    <glyph glyph-name="quotedblright" unicode="&#x201d;" horiz-adv-x="798" 
d="M688 1231q0 -91 -46.5 -173.5t-119.5 -135.5l-76 63q50 33 88 87.5t44 103.5q-5 -5 -27 -5q-43 0 -71.5 30.5t-28.5 74.5q0 45 32.5 77.5t77.5 32.5q54 0 90.5 -41.5t36.5 -113.5zM360 1231q0 -91 -46 -173.5t-119 -135.5l-78 63q50 33 88.5 87.5t44.5 103.5
q-10 -5 -29 -5q-41 0 -69.5 30.5t-28.5 74.5q0 45 31.5 77.5t76.5 32.5q55 0 92 -41.5t37 -113.5z" />
    <glyph glyph-name="quotedblbase" unicode="&#x201e;" horiz-adv-x="798" 
d="M360 49q0 -91 -46 -173.5t-119 -135.5l-78 63q51 33 89 87t44 104q-8 -4 -29 -4q-41 0 -69.5 30t-28.5 74q0 45 31.5 78t76.5 33q55 0 92 -42.5t37 -113.5zM688 49q0 -91 -46.5 -173.5t-119.5 -135.5l-76 63q50 33 88 87t44 104q-4 -4 -27 -4q-43 0 -71.5 30t-28.5 74
q0 45 32.5 78t77.5 33q53 0 90 -42.5t37 -113.5z" />
    <glyph glyph-name="dagger" unicode="&#x2020;" horiz-adv-x="538" 
d="M492 1087l-183 9l8 -426h-98l10 426l-182 -9v89l182 -7l-10 217h98l-8 -217l183 7v-89z" />
    <glyph glyph-name="daggerdbl" unicode="&#x2021;" horiz-adv-x="538" 
d="M492 1176v-89l-183 9v-437l183 9v-88l-183 6l8 -217h-98l8 217l-180 -6v88l180 -9v437l-180 -9v89l180 -7l-8 217h98l-8 -217z" />
    <glyph glyph-name="bullet" unicode="&#x2022;" horiz-adv-x="733" 
d="M590 496q0 -90 -65 -155t-156 -65t-156.5 65.5t-65.5 154.5q0 91 65.5 156t156.5 65t156 -65t65 -156z" />
    <glyph glyph-name="ellipsis" unicode="&#x2026;" horiz-adv-x="1415" 
d="M348 92q0 -45 -33.5 -78.5t-78.5 -33.5q-46 0 -79.5 34t-33.5 78q0 46 33.5 79.5t79.5 33.5t79 -33.5t33 -79.5zM819 92q0 -45 -33.5 -78.5t-78.5 -33.5t-79 34t-34 78q0 46 33.5 79.5t79.5 33.5t79 -33.5t33 -79.5zM1290 92q0 -45 -32.5 -78.5t-77.5 -33.5
q-46 0 -79.5 34t-33.5 78q0 46 33.5 79.5t79.5 33.5q45 0 77.5 -33.5t32.5 -79.5z" />
    <glyph glyph-name="perthousand" unicode="&#x2030;" horiz-adv-x="2220" 
d="M723 1047q0 -143 -92 -238.5t-238 -95.5q-145 0 -237.5 95.5t-92.5 238.5q0 147 92.5 243t237.5 96q146 0 238 -95.5t92 -243.5zM1249 1366l-874 -1366h-113l873 1366h114zM1434 311q0 -144 -91.5 -240t-236.5 -96t-237.5 96t-92.5 240t92.5 241t237.5 97q144 0 236 -97
t92 -241zM600 1047q0 106 -57.5 174.5t-149.5 68.5q-91 0 -149 -68.5t-58 -174.5q0 -101 58.5 -169.5t148.5 -68.5q91 0 149 68.5t58 169.5zM1313 311q0 104 -58 173t-149 69q-93 0 -151 -69t-58 -173q0 -103 58 -171t151 -68q91 0 149 68.5t58 170.5zM2157 311
q0 -144 -92.5 -240t-237.5 -96t-237.5 96t-92.5 240t92.5 241t237.5 97t237.5 -97t92.5 -241zM2034 311q0 104 -58 173t-149 69t-149 -69t-58 -173q0 -102 58 -170.5t149 -68.5t149 68.5t58 170.5z" />
    <glyph glyph-name="guilsinglleft" unicode="&#x2039;" horiz-adv-x="604" 
d="M543 129h-154l-328 369l328 362h154l-328 -362z" />
    <glyph glyph-name="guilsinglright" unicode="&#x203a;" horiz-adv-x="604" 
d="M543 498l-328 -369h-154l328 369l-328 362h154z" />
    <glyph glyph-name="fraction" unicode="&#x2044;" horiz-adv-x="284" 
d="M635 1366l-875 -1366h-110l872 1366h113z" />
    <glyph glyph-name="fraction" unicode="&#x2215;" horiz-adv-x="284" 
d="M635 1366l-875 -1366h-110l872 1366h113z" />
    <glyph glyph-name="zerosuperior" unicode="&#x2070;" 
d="M729 1272q0 -63 -12 -122.5t-38 -114.5t-64 -96.5t-94 -66t-124 -24.5t-124.5 24.5t-93.5 66t-62.5 97t-37 114.5t-11.5 122q0 80 19 152.5t56.5 134t103 98.5t150.5 37q84 0 149.5 -37t104.5 -98.5t58.5 -134.5t19.5 -152zM602 1272q0 89 -19 158.5t-66.5 116
t-119.5 46.5q-55 0 -95.5 -26t-63.5 -72t-34 -101.5t-11 -121.5t11 -122t34.5 -102.5t64 -73t94.5 -26.5t95 26.5t64 73t34.5 102.5t11.5 122z" />
    <glyph glyph-name="foursuperior" unicode="&#x2074;" 
d="M721 1067h-117v-205h-123v205h-401v92l354 522h170v-514h117v-100zM481 1167v406l-278 -406h278z" />
    <glyph glyph-name="fivesuperior" unicode="&#x2075;" 
d="M705 1120q0 -123 -88 -197.5t-224 -74.5q-204 0 -303 133l72 80q86 -113 231 -113q84 0 137.5 48.5t53.5 119.5q0 76 -52 123t-135 47q-111 0 -194 -80l-88 33v442h534v-100h-409v-274q31 31 82.5 52t111.5 21q113 0 192 -68.5t79 -191.5z" />
    <glyph glyph-name="sixsuperior" unicode="&#x2076;" 
d="M719 1118q0 -112 -84.5 -191t-218.5 -79q-88 0 -154.5 34t-105.5 93.5t-58.5 134t-19.5 162.5q0 118 38 211.5t120 152t198 58.5q145 0 240 -95l-60 -86q-37 40 -78 60t-102 20q-77 0 -131 -44.5t-77.5 -110t-24.5 -144.5q0 -22 2 -34q33 49 97 86.5t136 37.5
q122 0 202.5 -69.5t80.5 -196.5zM594 1114q0 84 -53.5 128t-134.5 44q-57 0 -112 -30.5t-89 -81.5q7 -92 58 -159t149 -67q83 0 132.5 51.5t49.5 114.5z" />
    <glyph glyph-name="sevensuperior" unicode="&#x2077;" horiz-adv-x="741" 
d="M662 1597l-340 -735h-138l340 719h-456v100h594v-84z" />
    <glyph glyph-name="eightsuperior" unicode="&#x2078;" 
d="M711 1071q0 -106 -90.5 -164.5t-223.5 -58.5q-134 0 -223.5 58t-89.5 165q0 78 59.5 134.5t147.5 78.5q-83 20 -138 70.5t-55 124.5q0 72 46 122.5t111.5 71.5t141.5 21t141.5 -21t111.5 -71.5t46 -122.5q0 -74 -54 -124.5t-138 -70.5q88 -22 147.5 -78.5t59.5 -134.5z
M573 1464q0 62 -49 96.5t-127 34.5t-128 -34.5t-50 -96.5q0 -96 173 -138q3 -1 5 -1q176 41 176 139zM588 1081q0 39 -22.5 70t-56.5 48.5t-62 27t-50 12.5q-22 -3 -50 -12.5t-62 -27t-57 -48.5t-23 -70q0 -62 56 -99.5t136 -37.5t135.5 37.5t55.5 99.5z" />
    <glyph glyph-name="ninesuperior" unicode="&#x2079;" 
d="M78 1423q0 114 83.5 192.5t219.5 78.5q88 0 154.5 -34t105.5 -93.5t58.5 -134t19.5 -162.5q0 -117 -38.5 -211t-121.5 -152.5t-199 -58.5q-146 0 -237 94l59 86q70 -80 178 -80q112 0 172 87t62 214v33q-35 -49 -99 -87t-135 -38q-122 0 -202 69.5t-80 196.5zM201 1427
q0 -84 53.5 -128t134.5 -44q58 0 113 31t90 84q-4 42 -17 79.5t-36.5 70.5t-62.5 53t-89 20q-86 0 -136 -51.5t-50 -114.5z" />
    <glyph glyph-name="parenleftsuperior" unicode="&#x207d;" horiz-adv-x="329" 
d="M309 762l-71 -33q-88 107 -136.5 250t-48.5 293q0 148 48.5 291t136.5 252l71 -33q-66 -129 -97.5 -246t-31.5 -264t31.5 -264t97.5 -246z" />
    <glyph glyph-name="parenrightsuperior" unicode="&#x207e;" horiz-adv-x="329" 
d="M303 1272q0 -149 -49 -291.5t-137 -251.5l-70 33q66 129 97.5 246t31.5 264t-31.5 264t-97.5 246l70 33q88 -109 137 -252t49 -291z" />
    <glyph glyph-name="nsuperior" unicode="&#x207f;" horiz-adv-x="815" 
d="M692 668h-119v411q0 81 -37 115.5t-106 34.5q-55 0 -106.5 -27.5t-81.5 -66.5v-467h-119v643h119v-90q40 43 103 74.5t132 31.5q118 0 166.5 -56.5t48.5 -162.5v-440z" />
    <glyph glyph-name="zeroinferior" unicode="&#x2080;" 
d="M729 111q0 -63 -12 -122.5t-38 -114.5t-64 -96.5t-94 -66t-124 -24.5t-124.5 24.5t-93.5 66t-62.5 97t-37 114.5t-11.5 122t11.5 122t37 114t62.5 95.5t93.5 65t124.5 24.5q84 0 149.5 -37t104.5 -98t58.5 -134t19.5 -152zM602 111q0 89 -19 158.5t-66.5 116t-119.5 46.5
q-55 0 -95.5 -26t-63.5 -72t-34 -101.5t-11 -121.5t11 -122t34.5 -102.5t64 -73t94.5 -26.5t95 26.5t64 73t34.5 102.5t11.5 122z" />
    <glyph glyph-name="oneinferior" unicode="&#x2081;" horiz-adv-x="481" 
d="M358 -299h-122v659l-136 -141l-71 76l221 225h108v-819z" />
    <glyph glyph-name="twoinferior" unicode="&#x2082;" 
d="M698 -299h-596v92q256 184 362.5 290t106.5 200q0 73 -51 111t-123 38t-133.5 -30.5t-95.5 -75.5l-68 77q49 62 130 95.5t171 33.5q58 0 109.5 -14.5t93 -42.5t66 -75.5t24.5 -108.5q0 -48 -20.5 -97.5t-54 -94.5t-88 -97t-112 -98t-136.5 -103h415v-100z" />
    <glyph glyph-name="threeinferior" unicode="&#x2083;" 
d="M702 -76q0 -106 -83 -171.5t-226 -65.5q-104 0 -184.5 37t-122.5 96l68 78q40 -51 103.5 -81t133.5 -30q88 0 138.5 38.5t50.5 104.5q0 74 -58 108t-155 34q-70 0 -82 -2v102q14 -2 82 -2q91 0 145.5 31.5t54.5 99.5q0 62 -52.5 96.5t-131.5 34.5q-132 0 -223 -98l-64 72
q110 126 299 126q131 0 212 -59.5t81 -159.5q0 -82 -55.5 -129.5t-126.5 -58.5q31 -3 63.5 -16.5t63 -37t50 -62t19.5 -85.5z" />
    <glyph glyph-name="fourinferior" unicode="&#x2084;" 
d="M721 -94h-117v-205h-123v205h-401v92l354 522h170v-514h117v-100zM481 6v406l-278 -406h278z" />
    <glyph glyph-name="fiveinferior" unicode="&#x2085;" 
d="M705 -41q0 -123 -88 -197.5t-224 -74.5q-204 0 -303 133l72 80q86 -113 231 -113q84 0 137.5 48.5t53.5 119.5q0 76 -52 123t-135 47q-111 0 -194 -80l-88 33v442h534v-100h-409v-275q32 32 83.5 53t110.5 21q113 0 192 -68.5t79 -191.5z" />
    <glyph glyph-name="sixinferior" unicode="&#x2086;" 
d="M719 -43q0 -112 -84.5 -191t-218.5 -79q-88 0 -154.5 34t-105.5 93.5t-58.5 134t-19.5 162.5q0 118 38 211t120 151.5t198 58.5q146 0 240 -94l-60 -86q-37 40 -78 60t-102 20q-77 0 -131 -44.5t-77.5 -110t-24.5 -144.5q0 -23 2 -35q33 49 97 87t136 38
q122 0 202.5 -69.5t80.5 -196.5zM594 -47q0 84 -53.5 128t-134.5 44q-57 0 -112 -31t-89 -82q3 -42 16 -80t36.5 -71.5t63.5 -53.5t91 -20q83 0 132.5 51.5t49.5 114.5z" />
    <glyph glyph-name="seveninferior" unicode="&#x2087;" horiz-adv-x="741" 
d="M662 436l-340 -735h-138l340 719h-456v100h594v-84z" />
    <glyph glyph-name="eightinferior" unicode="&#x2088;" 
d="M711 -90q0 -106 -90.5 -164.5t-223.5 -58.5q-134 0 -223.5 58t-89.5 165q0 78 59.5 134.5t147.5 78.5q-83 20 -138 70t-55 124q0 72 46 122.5t111.5 71.5t141.5 21t141.5 -21t111.5 -71.5t46 -122.5q0 -74 -54 -124t-138 -70q88 -22 147.5 -78.5t59.5 -134.5zM573 303
q0 62 -49 96.5t-127 34.5t-128 -34.5t-50 -96.5q0 -96 173 -138q3 -1 5 -1q176 41 176 139zM588 -80q0 39 -22.5 70t-56.5 48.5t-62 27t-50 12.5q-22 -3 -50 -12.5t-62 -27t-57 -48.5t-23 -70q0 -62 56 -99.5t136 -37.5t135.5 37.5t55.5 99.5z" />
    <glyph glyph-name="nineinferior" unicode="&#x2089;" 
d="M78 262q0 114 83.5 192t219.5 78q88 0 154.5 -33.5t105.5 -93t58.5 -134t19.5 -162.5q0 -117 -38.5 -211t-121.5 -152.5t-199 -58.5q-146 0 -237 94l59 86q70 -80 178 -80q112 0 172 87t62 214v33q-35 -49 -99 -87t-135 -38q-122 0 -202 69.5t-80 196.5zM201 266
q0 -84 53.5 -128t134.5 -44q58 0 113 31t90 84q-4 42 -17 79.5t-36.5 70.5t-62.5 53t-89 20q-86 0 -136 -51.5t-50 -114.5z" />
    <glyph glyph-name="parenleftinferior" unicode="&#x208d;" horiz-adv-x="329" 
d="M309 -399l-71 -33q-88 107 -136.5 250t-48.5 293q0 148 48.5 290.5t136.5 251.5l71 -32q-66 -129 -97.5 -246t-31.5 -264t31.5 -264t97.5 -246z" />
    <glyph glyph-name="parenrightinferior" unicode="&#x208e;" horiz-adv-x="329" 
d="M303 111q0 -149 -49 -291.5t-137 -251.5l-70 33q66 129 97.5 246t31.5 264t-31.5 264t-97.5 246l70 32q88 -109 137 -251.5t49 -290.5z" />
    <glyph glyph-name="colonmonetary" unicode="&#x20a1;" horiz-adv-x="1394" 
d="M815 -25q-31 0 -45 2l-59 -182h-105l64 195q-93 17 -160 47l-80 -242h-102l96 289q-145 93 -228 248t-83 350q0 154 54.5 287t149 224.5t223.5 143.5t275 52q7 0 22.5 -1.5t22.5 -1.5l62 187h102l-68 -199q84 -18 158 -57l86 256h103l-105 -311q67 -52 135 -144l-141 -80
q-26 37 -49 60l-322 -971q112 1 211.5 56t159.5 143l143 -78q-199 -273 -520 -273zM289 682q0 -136 49.5 -248t140.5 -188l330 991q-225 -3 -372.5 -158t-147.5 -397zM561 188q66 -36 158 -53l344 1028q-77 47 -156 64z" />
    <glyph glyph-name="frenchfranc" unicode="&#x20a3;" horiz-adv-x="1148" 
d="M350 0h-170v281h-160v98h160v987h895v-152h-725v-440h711v-151h-711v-244h414v-98h-414v-281z" />
    <glyph glyph-name="lira" unicode="&#x20a4;" horiz-adv-x="1060" 
d="M41 672v94h129q-72 100 -72 217q0 111 62.5 204t168 146t228.5 53q140 0 248.5 -60t165.5 -169l-137 -82q-28 70 -99.5 119t-161.5 49q-122 0 -206 -71.5t-84 -190.5q0 -115 79 -215h392v-94h-316q58 -81 72 -144h244v-94h-238q-10 -143 -154 -244q59 19 107 19
q67 0 157 -42t146 -42q63 0 117.5 25.5t77.5 56.5l73 -137q-101 -97 -276 -97q-62 0 -113.5 15t-81.5 32.5t-75.5 32.5t-96.5 15q-84 0 -241 -82l-60 129q130 57 200.5 138t70.5 173v8h-326v94h305q-21 49 -100 144h-205z" />
    <glyph glyph-name="uni20A6" unicode="&#x20a6;" horiz-adv-x="1492" 
d="M1311 0h-164l-363 496h-434v-496h-170v496h-160v98h160v192h-160v99h160v481h174l355 -481h432v481h170v-481h159v-99h-159v-192h159v-98h-159v-496zM350 786v-192h363l-142 192h-221zM780 786l144 -192h217v192h-361zM350 1090v-205h150zM995 496l146 -197v197h-146z
" />
    <glyph glyph-name="peseta" unicode="&#x20a7;" horiz-adv-x="1310" 
d="M1300 903h-147q-18 -157 -130.5 -258.5t-293.5 -101.5h-379v-543h-170v903h-160v107h160v356h549q181 0 293.5 -101t130.5 -255h147v-107zM709 694q107 0 179 56.5t89 152.5h-627v-209h359zM350 1214v-204h625q-17 93 -89 148.5t-177 55.5h-359z" />
    <glyph glyph-name="rupee" unicode="&#x20a8;" horiz-adv-x="2086" 
d="M1151 0h-201l-346 543h-274v-543h-170v1366h549q190 0 310 -112.5t120 -299.5q0 -89 -29.5 -163t-79.5 -122.5t-113.5 -77t-134.5 -34.5zM688 692q121 0 198 73t77 189t-76.5 188t-198.5 72h-358v-522h358zM1604 -25q-250 0 -400 156l78 111q53 -60 141 -101t185 -41
q111 0 173 47t62 123q0 48 -34 81t-87.5 51t-119 33t-131 35t-119 49t-87.5 82.5t-34 127.5q0 122 97.5 203.5t268.5 81.5q227 0 367 -144l-72 -106q-46 56 -123.5 90.5t-171.5 34.5q-99 0 -159 -44.5t-60 -111.5q0 -43 34 -72.5t88 -46t119 -31t130.5 -35.5t119.5 -51.5
t88 -87.5t34 -135q0 -130 -101.5 -214.5t-285.5 -84.5z" />
    <glyph glyph-name="uni20A9" unicode="&#x20a9;" horiz-adv-x="1808" 
d="M1389 0h-185l-137 496h-330l-135 -496h-184l-142 496h-235v98h207l-55 192h-152v99h125l-137 481h188l127 -481h356l134 481h141l131 -481h354l129 481h191l-140 -481h125v-99h-151l-55 -192h206v-98h-235zM371 786l51 -192h199l53 192h-303zM1133 786l53 -192h198
l52 192h-303zM817 786l-53 -192h276l-51 192h-172zM449 496l71 -269l74 269h-145zM1214 496l74 -269l70 269h-144zM903 1102l-59 -217h119z" />
    <glyph glyph-name="afii57636" unicode="&#x20aa;" horiz-adv-x="1681" 
d="M662 1126q237 0 348.5 -110t111.5 -324v-360h-149v350q0 155 -76 232t-235 77h-359v-991h-149v1126h508zM1067 0h-508v793h150v-658h358q159 0 235 77t76 232v682h150v-692q0 -214 -112 -324t-349 -110z" />
    <glyph glyph-name="Euro" unicode="&#x20ac;" horiz-adv-x="1423" 
d="M852 -25q-248 0 -433 138.5t-245 371.5h-111v107h91q-4 58 -4 90t4 94h-91v109h113q61 230 246 367t430 137q329 0 518 -271l-141 -80q-60 90 -161 144.5t-216 54.5q-174 0 -307 -95t-189 -257h619v-109h-643q-6 -46 -6 -94q0 -46 6 -90h643v-107h-619
q54 -163 188 -260.5t308 -97.5q114 0 215.5 55t161.5 144l143 -78q-199 -273 -520 -273z" />
    <glyph glyph-name="afii61289" unicode="&#x2113;" horiz-adv-x="972" 
d="M156 1034v-827q0 -119 58.5 -175.5t160.5 -56.5q118 0 182 64l-45 104q-46 -43 -104 -43q-49 0 -74 35.5t-25 93.5v346l348 234q56 38 94.5 69t76.5 71.5t57.5 85.5t19.5 93q0 112 -103.5 185t-256.5 73q-171 0 -280 -101t-109 -251zM600 924l-291 -195v303
q0 110 66.5 175t167.5 65q86 0 150.5 -42t64.5 -108q0 -55 -37 -97.5t-121 -100.5z" />
    <glyph glyph-name="afii61352" unicode="&#x2116;" horiz-adv-x="2279" 
d="M1290 0h-164l-796 1090v-1090h-170v1366h174l786 -1067v1067h170v-1366zM1864 717q-148 0 -240 98t-92 240q0 143 91.5 240.5t240.5 97.5q151 0 242.5 -97t91.5 -241q0 -143 -91.5 -240.5t-242.5 -97.5zM1864 815q98 0 155.5 68.5t57.5 171.5t-57 170t-156 67
q-97 0 -153 -67t-56 -170t56 -171.5t153 -68.5z" />
    <glyph glyph-name="published" unicode="&#x2117;" horiz-adv-x="1593" 
d="M1503 684q0 -143 -56 -274t-150.5 -226t-225.5 -151t-274 -56q-191 0 -354 95t-258 258t-95 354t95 354t258 258t354 95q143 0 274 -56t225.5 -151t150.5 -226t56 -274zM1440 684q0 130 -51.5 249t-137.5 205t-205 137.5t-249 51.5t-249 -51.5t-205 -137.5t-137.5 -205
t-51.5 -249t51.5 -249t137.5 -205t205 -137.5t249 -51.5t249 51.5t205 137.5t137.5 205t51.5 249zM1126 858q0 -105 -75 -169t-183 -64h-229v-357h-76v830h305q108 0 183 -65t75 -175zM1049 858q0 77 -51 122.5t-130 45.5h-229v-332h229q79 0 130 45t51 119z" />
    <glyph glyph-name="servicemark" unicode="&#x2120;" horiz-adv-x="974" 
d="M899 915h-57v373l-154 -373h-16l-154 373v-373h-57v451h88l131 -328l131 328h88v-451zM385 1036q0 -64 -46 -100.5t-132 -36.5q-112 0 -176 74l37 43q58 -66 137 -66q56 0 84 22t28 58q0 28 -20.5 46.5t-51.5 27t-67 19.5t-67 22.5t-51.5 38t-20.5 65.5q0 57 46.5 93
t117.5 36q113 0 168 -65l-37 -39q-46 55 -129 55q-43 0 -71 -21t-28 -53q0 -30 28.5 -47.5t69.5 -27.5t82.5 -22.5t70 -43t28.5 -78.5z" />
    <glyph glyph-name="trademark" unicode="&#x2122;" horiz-adv-x="929" 
d="M858 915h-57v373l-154 -373h-16l-154 373v-373h-57v451h88l131 -328l131 328h88v-451zM346 1313h-127v-398h-57v398h-127v53h311v-53z" />
    <glyph glyph-name="estimated" unicode="&#x212e;" horiz-adv-x="1724" 
d="M1661 664h-1294q-11 0 -11 -11v-389q0 -28 19 -47q94 -99 221.5 -155t269.5 -56q152 0 284 62.5t228 173.5h117q-111 -130 -277 -204.5t-356 -74.5q-162 0 -310 57t-255 153t-170.5 229.5t-63.5 279.5t63.5 279.5t170.5 229.5t255 153t310 57t310 -57t255 -153
t170.5 -229.5t63.5 -279.5v-18zM1368 715v391q0 29 -20 49q-94 96 -219 149.5t-263 53.5q-141 0 -267.5 -55.5t-221.5 -153.5q-21 -21 -21 -49v-385q0 -13 11 -13h993q8 0 8 13z" />
    <glyph glyph-name="onethird" unicode="&#x2153;" horiz-adv-x="1652" 
d="M1208 1366l-874 -1366h-111l873 1366h112zM1561 223q0 -106 -83.5 -171.5t-226.5 -65.5q-104 0 -184.5 37t-122.5 96l68 78q40 -51 103.5 -81t133.5 -30q88 0 138.5 38.5t50.5 104.5q0 74 -58 108t-155 34q-70 0 -82 -2v102q14 -2 82 -2q91 0 145.5 31.5t54.5 99.5
q0 62 -52.5 96.5t-131.5 34.5q-132 0 -223 -98l-64 72q110 126 299 126q131 0 212 -59.5t81 -159.5q0 -82 -55.5 -129.5t-126.5 -58.5q43 -4 86 -25.5t77 -68t34 -107.5zM358 547h-122v659l-136 -141l-71 76l221 225h108v-819z" />
    <glyph glyph-name="twothirds" unicode="&#x2154;" horiz-adv-x="1873" 
d="M1430 1366l-875 -1366h-111l873 1366h113zM1782 223q0 -106 -83 -171.5t-226 -65.5q-104 0 -185 37t-123 96l68 78q40 -51 103.5 -81t133.5 -30q88 0 138.5 38.5t50.5 104.5q0 74 -58 108t-155 34q-70 0 -82 -2v102q14 -2 82 -2q92 0 146.5 31.5t54.5 99.5q0 62 -53 96.5
t-132 34.5q-132 0 -223 -98l-63 72q110 126 299 126q130 0 211 -59.5t81 -159.5q0 -82 -55.5 -129.5t-126.5 -58.5q43 -4 86 -25.5t77 -68t34 -107.5zM698 547h-596v92q256 184 362.5 289.5t106.5 199.5q0 73 -51 111.5t-123 38.5q-71 0 -133 -30.5t-96 -76.5l-68 78
q49 62 130 95.5t171 33.5q58 0 109.5 -14.5t93 -42.5t66 -75.5t24.5 -108.5q0 -48 -20.5 -97.5t-54 -94.5t-88 -97t-112 -98t-136.5 -103h415v-100z" />
    <glyph glyph-name="oneeighth" unicode="&#x215b;" horiz-adv-x="1652" 
d="M1208 1366l-874 -1366h-111l873 1366h112zM1569 209q0 -106 -90.5 -164.5t-223.5 -58.5q-134 0 -223.5 58t-89.5 165q0 78 59.5 134.5t147.5 78.5q-83 20 -138 70t-55 124q0 72 46 122.5t111.5 71.5t141.5 21t141.5 -21t111.5 -71.5t46 -122.5q0 -74 -54 -124t-138 -70
q88 -22 147.5 -78.5t59.5 -134.5zM1432 602q0 62 -49.5 96.5t-127.5 34.5t-128 -34.5t-50 -96.5q0 -96 173 -138q3 -1 5 -1q177 41 177 139zM1446 219q0 39 -22.5 70t-56.5 48.5t-62 27t-50 12.5q-22 -3 -50 -12.5t-62 -27t-57 -48.5t-23 -70q0 -62 56 -99.5t136 -37.5
t135.5 37.5t55.5 99.5zM358 547h-122v659l-136 -141l-71 76l221 225h108v-819z" />
    <glyph glyph-name="threeeighths" unicode="&#x215c;" horiz-adv-x="1873" 
d="M1430 1366l-875 -1366h-111l873 1366h113zM1790 209q0 -106 -90 -164.5t-223 -58.5q-134 0 -224 58t-90 165q0 78 59.5 134.5t147.5 78.5q-83 20 -137.5 70t-54.5 124q0 72 46 122.5t111.5 71.5t141.5 21t141.5 -21t111.5 -71.5t46 -122.5q0 -74 -54.5 -124t-138.5 -70
q88 -22 147.5 -78.5t59.5 -134.5zM1653 602q0 62 -49 96.5t-127 34.5t-128.5 -34.5t-50.5 -96.5q0 -28 16 -52t33.5 -37t50.5 -25.5t43 -15.5t36 -9q176 41 176 139zM1667 219q0 39 -22.5 70t-56.5 48.5t-61.5 27t-49.5 12.5q-22 -3 -50 -12.5t-62.5 -27t-57.5 -48.5
t-23 -70q0 -62 56.5 -99.5t136.5 -37.5t135 37.5t55 99.5zM702 770q0 -106 -83 -172t-226 -66q-104 0 -184.5 37.5t-122.5 96.5l68 77q40 -51 103.5 -80.5t133.5 -29.5q88 0 138.5 38.5t50.5 104.5q0 74 -58 108t-155 34q-64 0 -82 -3v103q14 -2 82 -2q91 0 145.5 31.5
t54.5 99.5q0 62 -52.5 96.5t-131.5 34.5q-132 0 -223 -98l-64 71q111 127 299 127q131 0 212 -59.5t81 -159.5q0 -82 -55.5 -129.5t-126.5 -58.5q31 -3 63.5 -16.5t63 -37t50 -62t19.5 -85.5z" />
    <glyph glyph-name="fiveeighths" unicode="&#x215d;" horiz-adv-x="1867" 
d="M1423 1366l-874 -1366h-111l873 1366h112zM1784 209q0 -106 -90.5 -164.5t-223.5 -58.5q-134 0 -223.5 58t-89.5 165q0 78 59.5 134.5t147.5 78.5q-83 20 -138 70t-55 124q0 72 46 122.5t111.5 71.5t141.5 21t141.5 -21t111.5 -71.5t46 -122.5q0 -74 -54 -124t-138 -70
q88 -22 147.5 -78.5t59.5 -134.5zM1647 602q0 62 -49.5 96.5t-127.5 34.5t-128 -34.5t-50 -96.5q0 -96 173 -138q3 -1 5 -1q177 41 177 139zM1661 219q0 39 -22.5 70t-56.5 48.5t-62 27t-50 12.5q-22 -3 -50 -12.5t-62 -27t-57 -48.5t-23 -70q0 -62 56 -99.5t136 -37.5
t135.5 37.5t55.5 99.5zM705 805q0 -123 -88 -198t-224 -75q-203 0 -303 134l72 79q86 -112 231 -112q84 0 137.5 48.5t53.5 119.5q0 76 -52 123t-135 47q-111 0 -194 -80l-88 33v442h534v-100h-409v-275q32 32 83.5 53t110.5 21q113 0 192 -68.5t79 -191.5z" />
    <glyph glyph-name="seveneighths" unicode="&#x215e;" horiz-adv-x="1699" 
d="M1255 1366l-874 -1366h-111l873 1366h112zM1616 209q0 -106 -90 -164.5t-223 -58.5q-134 0 -224 58t-90 165q0 78 59.5 134.5t147.5 78.5q-83 20 -137.5 70t-54.5 124q0 72 46 122.5t111.5 71.5t141.5 21t141.5 -21t111.5 -71.5t46 -122.5q0 -74 -54.5 -124t-138.5 -70
q88 -22 147.5 -78.5t59.5 -134.5zM1479 602q0 62 -49 96.5t-127 34.5t-128.5 -34.5t-50.5 -96.5q0 -28 16 -52t33.5 -37t50.5 -25.5t43 -15.5t36 -9q176 41 176 139zM1493 219q0 39 -22.5 70t-56.5 48.5t-61.5 27t-49.5 12.5q-22 -3 -50 -12.5t-62.5 -27t-57.5 -48.5
t-23 -70q0 -62 56.5 -99.5t136.5 -37.5t135 37.5t55 99.5zM662 1282l-340 -735h-138l340 719h-456v100h594v-84z" />
    <glyph glyph-name="arrowleft" unicode="&#x2190;" horiz-adv-x="1191" 
d="M1102 432h-551l24 -266l-575 420l575 418l-24 -265h551v-307z" />
    <glyph glyph-name="arrowup" unicode="&#x2191;" horiz-adv-x="1191" 
d="M442 35v551l-266 -25l420 576l418 -576l-264 25v-551h-308z" />
    <glyph glyph-name="arrowright" unicode="&#x2192;" horiz-adv-x="1191" 
d="M1196 586l-575 -420l24 266h-549v307h549l-24 265z" />
    <glyph glyph-name="arrowdown" unicode="&#x2193;" horiz-adv-x="1191" 
d="M750 1137v-551l266 24l-420 -575l-418 575l264 -24v551h308z" />
    <glyph glyph-name="partialdiff" unicode="&#x2202;" horiz-adv-x="1171" 
d="M586 -25q-147 0 -259.5 68t-171.5 182t-59 254q0 139 56.5 253.5t160.5 181.5t234 67q202 0 317 -168q-62 138 -194.5 267t-315.5 218l115 97q93 -49 178 -113t164 -149t137 -179.5t92.5 -209.5t34.5 -234q0 -235 -133.5 -385t-355.5 -150zM586 113q152 0 239.5 105.5
t87.5 260.5q0 154 -87.5 259.5t-239.5 105.5t-240 -105.5t-88 -259.5q0 -155 88 -260.5t240 -105.5z" />
    <glyph glyph-name="product" unicode="&#x220f;" horiz-adv-x="1449" 
d="M1159 -184h-170v1398h-530v-1398h-170v1398h-223v152h1318v-152h-225v-1398z" />
    <glyph glyph-name="summation" unicode="&#x2211;" horiz-adv-x="1179" 
d="M791 612l-467 602h745v152h-956v-149l471 -607l-473 -643v-151h958v151h-754z" />
    <glyph glyph-name="minus" unicode="&#x2212;" horiz-adv-x="1021" 
d="M963 631h-904v106h904v-106z" />
    <glyph glyph-name="radical" unicode="&#x221a;" horiz-adv-x="1484" 
d="M874 0h-118l-267 670l-317 -125l-37 102l422 162l260 -649l481 1206h121z" />
    <glyph glyph-name="infinity" unicode="&#x221e;" horiz-adv-x="1343" 
d="M377 348q-80 0 -142.5 29.5t-100 79t-56.5 108t-19 121.5q0 64 19 123.5t56.5 108.5t100 78.5t142.5 29.5q97 0 173.5 -63.5t121.5 -161.5q45 98 122 161.5t175 63.5q80 0 142 -29.5t99 -78.5t55.5 -108t18.5 -124q0 -63 -18.5 -121.5t-55.5 -108t-99 -79t-142 -29.5
q-98 0 -175 63.5t-122 161.5q-45 -98 -121.5 -161.5t-173.5 -63.5zM958 457q98 0 154.5 64t56.5 165q0 102 -56.5 167t-154.5 65q-79 0 -138 -66.5t-97 -165.5q37 -98 96.5 -163.5t138.5 -65.5zM387 457q79 0 139 65.5t97 163.5q-37 99 -97 165.5t-139 66.5
q-98 0 -155.5 -64.5t-57.5 -167.5q0 -100 57.5 -164.5t155.5 -64.5z" />
    <glyph glyph-name="integral" unicode="&#x222b;" horiz-adv-x="712" 
d="M160 -205h-125v113h125q56 0 96.5 47t40.5 117v1224q0 123 76.5 200t179.5 77h125v-113h-125q-57 0 -97 -45.5t-40 -116.5v-1228q0 -121 -76.5 -198t-179.5 -77z" />
    <glyph glyph-name="approxequal" unicode="&#x2248;" horiz-adv-x="1021" 
d="M59 432v121q98 -68 226 -68q55 0 100.5 12.5t79.5 29.5t69.5 34.5t86.5 30t114 12.5q124 0 228 -55v-121q-101 70 -228 70q-66 0 -122.5 -19t-92.5 -41.5t-98 -41.5t-137 -19q-127 0 -226 55zM59 819v121q98 -68 226 -68q55 0 100.5 12.5t79.5 30t69.5 34.5t86.5 29.5
t114 12.5q124 0 228 -55v-121q-98 68 -228 68q-55 0 -100.5 -12.5t-80 -29.5t-70 -34.5t-86.5 -30t-113 -12.5q-127 0 -226 55z" />
    <glyph glyph-name="notequal" unicode="&#x2260;" horiz-adv-x="1021" 
d="M252 190h-111l154 242h-236v109h303l183 286h-486v109h555l154 240h113l-154 -240h236v-109h-306l-182 -286h488v-109h-557z" />
    <glyph glyph-name="lessequal" unicode="&#x2264;" horiz-adv-x="1021" 
d="M963 203l-904 446v109l904 448v-129l-773 -375l773 -370v-129zM963 0h-904v109h904v-109z" />
    <glyph glyph-name="greaterequal" unicode="&#x2265;" horiz-adv-x="1021" 
d="M963 649l-904 -446v129l770 370l-770 375v129l904 -448v-109zM961 0h-904v109h904v-109z" />
    <glyph glyph-name="triangleright" unicode="&#x22b2;" horiz-adv-x="1202" 
d="M1206 586l-1095 -633v1266z" />
    <glyph glyph-name="triangleleft" unicode="&#x22b3;" horiz-adv-x="1202" 
d="M1096 1219v-1266l-1096 633z" />
    <glyph glyph-name="uni2318" unicode="&#x2318;" horiz-adv-x="1366" 
d="M463 315v152h-152q-63 0 -105 -44.5t-42 -107.5t43 -108t106 -45t106.5 45t43.5 108zM463 899v154q0 63 -42.5 107t-105.5 44t-107 -44t-44 -107t44 -108.5t107 -45.5h148zM543 543h280v280h-280v-280zM1202 315q0 63 -42 107.5t-105 44.5h-152v-152q0 -63 43.5 -108
t106.5 -45t106 45t43 108zM1202 1053q0 63 -43 107t-106 44t-106.5 -44t-43.5 -107v-154h152q62 0 104.5 45t42.5 109zM1280 315q0 -94 -66.5 -161.5t-160.5 -67.5t-162 67.5t-68 161.5v152h-280v-152q0 -94 -68 -161.5t-162 -67.5t-160.5 67.5t-66.5 161.5t66.5 161
t160.5 67h150v280h-148q-94 0 -161.5 68t-67.5 162t67.5 160.5t161.5 66.5t161 -66.5t67 -160.5v-154h280v154q0 93 68 160t162 67t160.5 -66.5t66.5 -160.5t-67 -162t-160 -68h-150v-280h150q94 0 160.5 -67t66.5 -161z" />
    <glyph glyph-name="uni2318" unicode="&#xf8ff;" horiz-adv-x="1366" 
d="M463 315v152h-152q-63 0 -105 -44.5t-42 -107.5t43 -108t106 -45t106.5 45t43.5 108zM463 899v154q0 63 -42.5 107t-105.5 44t-107 -44t-44 -107t44 -108.5t107 -45.5h148zM543 543h280v280h-280v-280zM1202 315q0 63 -42 107.5t-105 44.5h-152v-152q0 -63 43.5 -108
t106.5 -45t106 45t43 108zM1202 1053q0 63 -43 107t-106 44t-106.5 -44t-43.5 -107v-154h152q62 0 104.5 45t42.5 109zM1280 315q0 -94 -66.5 -161.5t-160.5 -67.5t-162 67.5t-68 161.5v152h-280v-152q0 -94 -68 -161.5t-162 -67.5t-160.5 67.5t-66.5 161.5t66.5 161
t160.5 67h150v280h-148q-94 0 -161.5 68t-67.5 162t67.5 160.5t161.5 66.5t161 -66.5t67 -160.5v-154h280v154q0 93 68 160t162 67t160.5 -66.5t66.5 -160.5t-67 -162t-160 -68h-150v-280h150q94 0 160.5 -67t66.5 -161z" />
    <glyph glyph-name="blacksquare" unicode="&#x25a0;" horiz-adv-x="1353" 
d="M1266 0h-1170v1171h1170v-1171z" />
    <glyph glyph-name="triagup" unicode="&#x25b2;" horiz-adv-x="1261" 
d="M1264 59l-1268 2l633 1096z" />
    <glyph glyph-name="triagdn" unicode="&#x25bc;" horiz-adv-x="1261" 
d="M1264 1044l-635 -1095l-633 1095h1268z" />
    <glyph glyph-name="lozenge" unicode="&#x25ca;" horiz-adv-x="768" 
d="M406 0h-44l-323 684l323 682h44l323 -682zM385 84l270 600l-272 598l-270 -598z" />
    <glyph glyph-name="circlesolid" unicode="&#x25cf;" horiz-adv-x="1423" 
d="M1319 584q0 -165 -81.5 -305.5t-221.5 -222t-305 -81.5q-124 0 -236.5 48.5t-194 130t-130 194t-48.5 236.5q0 165 81.5 305t222 221.5t305.5 81.5t305 -81.5t221.5 -221.5t81.5 -305z" />
    <glyph glyph-name="blackstar" unicode="&#x2605;" horiz-adv-x="1554" 
d="M1554 862l-481 -350l184 -563l-481 348l-479 -348l182 563l-479 350h594l182 565l185 -565h593z" />
    <glyph glyph-name="ballotbox" unicode="&#x2610;" horiz-adv-x="1353" 
d="M1262 0h-1170v1171h1170v-1171zM1145 109v956h-936v-956h936z" />
    <glyph glyph-name="boxchecked" unicode="&#x2611;" horiz-adv-x="1353" 
d="M1386 1430l-141 -259h17v-1171h-1170v1171h1028l172 320zM1145 109v874l-432 -797l-414 504l86 80l311 -385l367 680h-854v-956h936z" />
    <glyph glyph-name="diamond" unicode="&#x2666;" horiz-adv-x="1026" 
d="M1026 584l-514 -512l-512 512l512 514z" />
    <glyph glyph-name="checkmark" unicode="&#x2713;" horiz-adv-x="1087" 
d="M1087 1430l-673 -1244l-414 504l86 80l311 -385l596 1106z" />
    <glyph glyph-name="perthousand.onum" unicode="&#xf628;" horiz-adv-x="1798" 
d="M590 870q0 -120 -75.5 -199t-195.5 -79q-117 0 -191.5 79t-74.5 199t74.5 200.5t191.5 80.5q120 0 195.5 -80.5t75.5 -200.5zM1159 256q0 -120 -75.5 -199.5t-192.5 -79.5t-192.5 79.5t-75.5 199.5q0 121 75 201t193 80t193 -80t75 -201zM1053 1126l-787 -1126h-106
l782 1126h111zM483 870q0 81 -46 136t-118 55q-70 0 -115.5 -55.5t-45.5 -135.5t45.5 -134t115.5 -54q73 0 118.5 53.5t45.5 134.5zM1055 256q0 83 -45.5 136.5t-118.5 53.5t-118.5 -53.5t-45.5 -136.5q0 -79 46 -133.5t118 -54.5t118 54.5t46 133.5zM1745 256
q0 -120 -74.5 -199.5t-193.5 -79.5q-116 0 -191.5 82t-75.5 197q0 121 75 201t192 80q119 0 193.5 -80t74.5 -201zM1640 256q0 83 -45 136.5t-118 53.5q-71 0 -116.5 -54t-45.5 -136q0 -79 45.5 -133.5t116.5 -54.5q72 0 117.5 54t45.5 134z" />
    <glyph glyph-name="zero.tzero" unicode="&#xf638;" horiz-adv-x="1253" 
d="M627 -25q-179 0 -305 113l-56 -88h-133l111 176q-70 98 -105 231.5t-35 274.5q0 104 18 202t58.5 190t100 160.5t148.5 110t198 41.5q175 0 301 -110l57 90h133l-110 -178q71 -99 106 -232t35 -274q0 -103 -18 -201.5t-58.5 -191t-100 -161.5t-148.5 -111t-197 -42z
M627 127q93 0 163 47.5t109 129t57.5 176t18.5 202.5q0 208 -64 350l-503 -807q85 -98 219 -98zM279 682q0 -208 61 -350l504 807q-86 96 -217 96q-75 0 -135.5 -31.5t-99.5 -84.5t-65 -125.5t-37 -149.5t-11 -162z" />
    <glyph glyph-name="zero.tnum" unicode="&#xf639;" horiz-adv-x="1224" 
d="M612 -25q-109 0 -198 42t-148 111t-99.5 162t-58.5 191t-18 201q0 104 18 202t58.5 190t99.5 160.5t148 110t198 41.5q108 0 197 -41.5t148.5 -110t100.5 -160.5t59 -190.5t18 -201.5t-18 -201.5t-59 -191t-100.5 -161.5t-148.5 -111t-197 -42zM612 127q75 0 135.5 32
t100 85t65.5 125.5t37 150t11 162.5t-11 162t-37 149.5t-65.5 125.5t-100 84.5t-135.5 31.5t-135.5 -31.5t-99.5 -84.5t-65 -125.5t-37 -149.5t-11 -162q0 -108 18.5 -202.5t57.5 -176t109 -129t163 -47.5z" />
    <glyph glyph-name="two.tnum" unicode="&#xf63a;" horiz-adv-x="1224" 
d="M1079 0h-938v137q119 93 198 156.5t166.5 138t142 127.5t108 113.5t82 109.5t46 101t17.5 102q0 63 -24.5 112.5t-66.5 79t-91.5 44t-104.5 14.5q-119 0 -213 -46t-157 -126l-105 108q77 103 202.5 159t272.5 56q87 0 167.5 -25t146.5 -73t105.5 -126.5t39.5 -176.5
q0 -82 -34 -166.5t-88 -159.5t-145 -165.5t-179 -165t-217 -176.5h669v-152z" />
    <glyph glyph-name="three.tnum" unicode="&#xf63b;" horiz-adv-x="1224" 
d="M610 -25q-164 0 -290.5 63.5t-194.5 162.5l100 106q62 -82 162.5 -131t218.5 -49q149 0 234.5 69t85.5 187q0 123 -91 182.5t-249 59.5q-122 0 -142 -2v155q23 -2 142 -2q139 0 228 56.5t89 168.5q0 110 -87.5 172t-217.5 62q-110 0 -196.5 -41t-163.5 -125l-95 107
q78 96 197 153t272 57q202 0 331.5 -97t129.5 -265q0 -71 -27.5 -130t-72 -96.5t-93.5 -60t-100 -30.5q39 -4 80.5 -18.5t84 -42.5t76 -65.5t54.5 -93t21 -118.5q0 -173 -132 -283.5t-354 -110.5z" />
    <glyph glyph-name="four.tnum" unicode="&#xf63c;" horiz-adv-x="1224" 
d="M924 0h-170v346h-650v141l586 879h234v-870h192v-150h-192v-346zM754 496v712l-480 -712h480z" />
    <glyph glyph-name="five.tnum" unicode="&#xf63d;" horiz-adv-x="1224" 
d="M625 -25q-316 0 -482 220l105 114q140 -182 377 -182q138 0 226.5 83.5t88.5 209.5q0 134 -87 214.5t-226 80.5q-183 0 -316 -127l-125 43v735h836v-152h-666v-475q55 54 139 88.5t181 34.5q87 0 165 -29t138.5 -82.5t96.5 -137.5t36 -187q0 -203 -138.5 -327
t-348.5 -124z" />
    <glyph glyph-name="six.tnum" unicode="&#xf63e;" horiz-adv-x="1224" 
d="M647 -25q-112 0 -202 38t-150 103t-100 156t-58 193t-18 217q0 113 20.5 215t65 192t109 155.5t157.5 103.5t205 38q237 0 377 -163l-86 -127q-58 68 -125 103.5t-166 35.5q-96 0 -171.5 -45.5t-121 -123t-69 -171t-23.5 -197.5v-53q51 81 158 147t229 66
q93 0 173.5 -27.5t141.5 -80.5t96 -137.5t35 -190.5q0 -89 -33.5 -169.5t-93.5 -142.5t-151 -98.5t-199 -36.5zM639 127q76 0 137.5 26.5t98.5 69.5t57 93t20 100q0 144 -87.5 219.5t-225.5 75.5q-101 0 -193 -56t-149 -147q4 -54 17.5 -105t40.5 -102t64.5 -89t94 -61.5
t125.5 -23.5z" />
    <glyph glyph-name="seven.tnum" unicode="&#xf63f;" horiz-adv-x="1224" 
d="M520 0h-188l551 1214h-736v152h932v-117z" />
    <glyph glyph-name="eight.tnum" unicode="&#xf640;" horiz-adv-x="1224" 
d="M612 -25q-136 0 -246 43.5t-176.5 129t-66.5 198.5q0 129 94 223t232 136q-62 18 -114.5 45.5t-96 67.5t-68.5 95t-25 119q0 89 40.5 158.5t108.5 111t149 63t169 21.5q87 0 168.5 -21.5t150 -63t109.5 -111t41 -158.5q0 -124 -86.5 -206.5t-218.5 -120.5
q138 -42 232 -136t94 -223q0 -112 -67 -197.5t-177.5 -129.5t-245.5 -44zM612 774q31 5 63.5 13.5t76.5 28t77 44t56.5 64t23.5 86.5q0 103 -85 164t-212 61q-128 0 -211.5 -61t-83.5 -164q0 -47 23.5 -86.5t56 -64t76.5 -44t76 -28t63 -13.5zM612 127q131 0 224.5 65.5
t93.5 172.5q0 51 -25 95t-62.5 72.5t-82.5 50.5t-82 32.5t-66 13.5q-29 -3 -65.5 -13.5t-82 -32.5t-82.5 -50.5t-62 -72.5t-25 -95q0 -107 92.5 -172.5t224.5 -65.5z" />
    <glyph glyph-name="nine.tnum" unicode="&#xf641;" horiz-adv-x="1224" 
d="M553 -23q-232 0 -379 164l86 127q58 -68 126 -103.5t167 -35.5t175.5 46.5t121 125t66.5 171t22 194.5q0 35 -2 53q-51 -81 -158 -147t-227 -66q-126 0 -225.5 47t-161.5 147.5t-62 241.5q0 89 33.5 169.5t94 142.5t152 98.5t200.5 36.5q111 0 201 -38t150 -103
t100.5 -156t58.5 -193t18 -217q0 -113 -21 -215.5t-65.5 -192t-109 -155.5t-157 -104t-204.5 -38zM590 653q100 0 193 56.5t149 148.5q-5 54 -18.5 104.5t-41 101.5t-65 88.5t-94 61t-125.5 23.5q-75 0 -136.5 -26.5t-99.5 -69t-58 -92.5t-20 -101q0 -144 88.5 -219.5
t227.5 -75.5z" />
    <glyph glyph-name="percent.onum" unicode="&#xf642;" horiz-adv-x="1212" 
d="M590 870q0 -120 -75.5 -199t-195.5 -79q-117 0 -191.5 79t-74.5 199t74.5 200.5t191.5 80.5q120 0 195.5 -80.5t75.5 -200.5zM1159 256q0 -120 -75.5 -199.5t-192.5 -79.5t-192.5 79.5t-75.5 199.5q0 121 75 201t193 80t193 -80t75 -201zM1053 1126l-787 -1126h-106
l782 1126h111zM483 870q0 81 -46 136t-118 55q-70 0 -115.5 -55.5t-45.5 -135.5t45.5 -134t115.5 -54q73 0 118.5 53.5t45.5 134.5zM1055 256q0 83 -45.5 136.5t-118.5 53.5t-118.5 -53.5t-45.5 -136.5q0 -81 45.5 -134.5t118.5 -53.5q72 0 118 54.5t46 133.5z" />
    <glyph glyph-name="zero.tonum" unicode="&#xf643;" horiz-adv-x="1224" 
d="M1135 563q0 -90 -19 -174t-60.5 -159.5t-101.5 -132t-148 -89.5t-194 -33t-194 33t-148 89.5t-101 132t-60 159.5t-19 174q0 91 19 175t60 159.5t101 131.5t148 89t194 33t194 -33t148 -89t101.5 -131.5t60.5 -159.5t19 -175zM961 563q0 67 -12 129.5t-39.5 118.5
t-67.5 97.5t-99 66t-131 24.5q-89 0 -157.5 -37t-109 -99.5t-61 -138.5t-20.5 -161t20.5 -161t61 -138.5t109 -99.5t157.5 -37t158 37t109.5 99.5t61 138.5t20.5 161z" />
    <glyph glyph-name="one.tonum" unicode="&#xf644;" horiz-adv-x="1224" 
d="M811 0h-170v903l-219 -233l-103 104l343 352h149v-1126z" />
    <glyph glyph-name="two.tonum" unicode="&#xf645;" horiz-adv-x="1224" 
d="M1044 0h-882v137q370 151 551.5 310.5t181.5 312.5q0 104 -81 171.5t-198 67.5q-119 0 -218.5 -45.5t-161.5 -126.5l-105 109q78 102 210 158.5t280 56.5q194 0 320 -101.5t126 -267.5q0 -179 -166 -348.5t-426 -281.5h569v-152z" />
    <glyph glyph-name="three.tonum" unicode="&#xf646;" horiz-adv-x="1224" 
d="M610 -274q-165 0 -291.5 63t-193.5 162l100 106q62 -82 162.5 -131t218.5 -49q149 0 234.5 69t85.5 187q0 123 -91 182.5t-249 59.5q-122 0 -142 -2v155q23 -2 142 -2q139 0 228 57t89 169q0 110 -87 171.5t-218 61.5q-110 0 -196.5 -41t-163.5 -125l-95 107
q78 97 197.5 154t271.5 57q202 0 331.5 -97.5t129.5 -265.5q0 -71 -27.5 -130t-72 -96.5t-93.5 -60t-100 -30.5q39 -4 80.5 -18.5t84 -42.5t76 -65.5t54.5 -93t21 -118.5q0 -173 -132 -283t-354 -110z" />
    <glyph glyph-name="four.tonum" unicode="&#xf647;" horiz-adv-x="1224" 
d="M1116 113h-192v-353h-170v353h-650v141l586 872h234v-864h192v-149zM754 262v707l-480 -707h480z" />
    <glyph glyph-name="five.tonum" unicode="&#xf648;" horiz-adv-x="1224" 
d="M625 -264q-317 0 -482 219l105 115q141 -183 377 -183q138 0 226.5 83.5t88.5 209.5q0 134 -87 214.5t-226 80.5q-183 0 -316 -127l-125 43v735h836v-151h-666v-475q55 54 139 88.5t181 34.5q117 0 214.5 -49t159.5 -150.5t62 -237.5q0 -203 -138.5 -326.5t-348.5 -123.5
z" />
    <glyph glyph-name="six.tonum" unicode="&#xf649;" horiz-adv-x="1224" 
d="M647 -25q-112 0 -202 38t-150 103t-100 156t-58 193t-18 217q0 113 20.5 215t65 192t109 155.5t157.5 103.5t205 38q237 0 377 -163l-86 -127q-58 68 -125 103.5t-166 35.5q-96 0 -171.5 -45.5t-121 -123t-69 -171t-23.5 -197.5v-53q51 81 158 147t229 66
q93 0 173.5 -27.5t141.5 -80.5t96 -137.5t35 -190.5q0 -89 -33.5 -169.5t-93.5 -142.5t-151 -98.5t-199 -36.5zM639 127q76 0 137.5 26.5t98.5 69.5t57 93t20 100q0 144 -87.5 219.5t-225.5 75.5q-101 0 -193 -56t-149 -147q4 -54 17.5 -105t40.5 -102t64.5 -89t94 -61.5
t125.5 -23.5z" />
    <glyph glyph-name="seven.tonum" unicode="&#xf64a;" horiz-adv-x="1224" 
d="M520 -240h-188l551 1215h-736v151h932v-116z" />
    <glyph glyph-name="eight.tonum" unicode="&#xf64b;" horiz-adv-x="1224" 
d="M612 -25q-136 0 -246 43.5t-176.5 129t-66.5 198.5q0 129 94 223t232 136q-62 18 -114.5 45.5t-96 67.5t-68.5 95t-25 119q0 89 40.5 158.5t108.5 111t149 63t169 21.5q87 0 168.5 -21.5t150 -63t109.5 -111t41 -158.5q0 -124 -86.5 -206.5t-218.5 -120.5
q138 -42 232 -136t94 -223q0 -112 -67 -197.5t-177.5 -129.5t-245.5 -44zM612 774q31 5 63.5 13.5t76.5 28t77 44t56.5 64t23.5 86.5q0 103 -85 164t-212 61q-128 0 -211.5 -61t-83.5 -164q0 -47 23.5 -86.5t56 -64t76.5 -44t76 -28t63 -13.5zM612 127q131 0 224.5 65.5
t93.5 172.5q0 51 -25 95t-62.5 72.5t-82.5 50.5t-82 32.5t-66 13.5q-29 -3 -65.5 -13.5t-82 -32.5t-82.5 -50.5t-62 -72.5t-25 -95q0 -107 92.5 -172.5t224.5 -65.5z" />
    <glyph glyph-name="nine.tonum" unicode="&#xf64c;" horiz-adv-x="1224" 
d="M553 -260q-232 0 -379 164l86 127q58 -68 126 -104t167 -36t175.5 46.5t121 125t66.5 171t22 194.5q0 35 -2 53q-51 -81 -158 -147t-227 -66q-194 0 -321.5 114t-127.5 323q0 89 33.5 169.5t94 142t152 98t200.5 36.5q111 0 201 -38t150 -103t100.5 -156t58.5 -193
t18 -217q0 -113 -21 -215t-65.5 -192t-109 -155.5t-157 -103.5t-204.5 -38zM590 416q100 0 193 56.5t149 148.5q-6 68 -27.5 130.5t-60.5 120.5t-105 92.5t-151 34.5q-75 0 -136.5 -26.5t-99.5 -69t-58 -92t-20 -100.5q0 -144 88.5 -219.5t227.5 -75.5z" />
    <glyph glyph-name="colonmonetary.onum" unicode="&#xf64d;" horiz-adv-x="1191" 
d="M502 -109l35 105q-49 10 -117 39l-49 -144h-88l63 187q-118 78 -184 204t-66 283q0 170 79 304.5t216 208t307 73.5h9l26 76h88l-28 -84q49 -7 118 -33l41 117h88l-53 -156q90 -57 158 -151l-129 -72q-27 42 -78 80l-272 -811h32q97 0 183.5 44.5t134.5 117.5l131 -72
q-169 -232 -449 -232q-12 0 -80 5l-28 -89h-88zM260 565q0 -207 137 -334l262 777q-173 -14 -286 -137t-113 -306zM467 178q58 -33 115 -47l284 842q-64 28 -121 33z" />
    <glyph glyph-name="Euro.onum" unicode="&#xf64e;" horiz-adv-x="1249" 
d="M840 637h-518q-5 -63 -5 -72q0 -47 5 -78h518v-98h-490q47 -125 156.5 -198.5t249.5 -73.5q97 0 183 44.5t134 117.5l131 -72q-169 -232 -448 -232q-211 0 -368.5 112.5t-211.5 301.5h-113v98h95q-4 25 -4 78q0 22 4 72h-95v98h113q53 189 210.5 302.5t369.5 113.5
q145 0 257.5 -61.5t188.5 -169.5l-129 -72q-52 75 -136 118.5t-181 43.5q-141 0 -250.5 -74.5t-157.5 -200.5h492v-98z" />
    <glyph glyph-name="florin.onum" unicode="&#xf64f;" horiz-adv-x="751" 
d="M217 -244h-170l152 684h-103v117h127l62 277q70 315 311 315q107 0 176 -66l-67 -122q-27 36 -87 36q-67 0 -104.5 -48.5t-58.5 -135.5l-58 -256h217v-117h-243z" />
    <glyph glyph-name="numbersign.onum" unicode="&#xf650;" horiz-adv-x="1015" 
d="M973 807l-29 -96h-180l-96 -289h182l-31 -96h-184l-109 -326h-116l108 326h-184l-109 -326h-116l108 326h-172l31 96h176l96 289h-178l29 96h180l108 319h117l-108 -319h182l110 319h117l-110 -319h178zM645 711h-180l-98 -289h184z" />
    <glyph glyph-name="sterling.onum" unicode="&#xf651;" horiz-adv-x="870" 
d="M29 459v98h145q-46 65 -72 125t-26 131q0 144 109.5 240t267.5 96q114 0 205.5 -48.5t136.5 -135.5l-121 -66q-29 63 -84 97t-125 34q-97 0 -164.5 -60t-67.5 -157q0 -44 17.5 -91t33 -73t50.5 -77q7 -10 10 -15h277v-98h-220q25 -59 25 -105q0 -59 -30.5 -111t-78.5 -83
q18 6 45 6q58 0 139.5 -28.5t123.5 -28.5q49 0 93 17.5t66 45.5l70 -115q-37 -35 -100 -57.5t-138 -22.5t-153.5 35t-143.5 35q-66 0 -192 -63l-55 110q107 47 162 106.5t55 125.5q0 61 -45 133h-215z" />
    <glyph glyph-name="yen.onum" unicode="&#xf652;" horiz-adv-x="1120" 
d="M643 0h-160v231h-434v99h434v145h-434v96h367l-402 555h187l364 -512l357 512h184l-395 -555h358v-96h-426v-145h426v-99h-426v-231z" />
    <glyph glyph-name="cent.onum" unicode="&#xf654;" horiz-adv-x="1191" 
d="M633 -188v168q-235 21 -386 182t-151 403q0 240 151 400t386 182v121h121v-121q243 -20 391 -227l-129 -72q-94 133 -262 158v-885q81 10 151 52.5t111 105.5l131 -72q-153 -207 -393 -227v-168h-121zM260 565q0 -177 105 -299.5t268 -144.5v885q-163 -24 -268 -145
t-105 -296z" />
    <glyph glyph-name="zero.dnom" unicode="&#xf655;" 
d="M729 410q0 -63 -12 -122.5t-38 -114.5t-64 -96.5t-94 -66t-124 -24.5t-124.5 24.5t-93.5 66t-62.5 97t-37 114.5t-11.5 122t11.5 122t37 114t62.5 95.5t93.5 65t124.5 24.5q84 0 149.5 -37t104.5 -98t58.5 -134t19.5 -152zM602 410q0 89 -19 158.5t-66.5 116t-119.5 46.5
q-55 0 -95.5 -26t-63.5 -72t-34 -101.5t-11 -121.5t11 -122t34.5 -102.5t64 -73t94.5 -26.5t95 26.5t64 73t34.5 102.5t11.5 122z" />
    <glyph glyph-name="one.dnom" unicode="&#xf656;" horiz-adv-x="481" 
d="M358 0h-122v659l-136 -141l-71 76l221 225h108v-819z" />
    <glyph glyph-name="two.dnom" unicode="&#xf657;" 
d="M698 0h-596v92q256 184 362.5 290t106.5 200q0 73 -51 111t-123 38t-133.5 -30.5t-95.5 -75.5l-68 77q49 62 130 95.5t171 33.5q58 0 109.5 -14.5t93 -42.5t66 -75.5t24.5 -108.5q0 -48 -20.5 -97.5t-54 -94.5t-88 -97t-112 -98t-136.5 -103h415v-100z" />
    <glyph glyph-name="three.dnom" unicode="&#xf658;" 
d="M702 223q0 -106 -83 -171.5t-226 -65.5q-104 0 -184.5 37t-122.5 96l68 78q40 -51 103.5 -81t133.5 -30q88 0 138.5 38.5t50.5 104.5q0 74 -58 108t-155 34q-70 0 -82 -2v102q14 -2 82 -2q91 0 145.5 31.5t54.5 99.5q0 62 -52.5 96.5t-131.5 34.5q-132 0 -223 -98l-64 72
q110 126 299 126q131 0 212 -59.5t81 -159.5q0 -82 -55.5 -129.5t-126.5 -58.5q31 -3 63.5 -16.5t63 -37t50 -62t19.5 -85.5z" />
    <glyph glyph-name="four.dnom" unicode="&#xf659;" 
d="M721 205h-117v-205h-123v205h-401v92l354 522h170v-514h117v-100zM481 305v406l-278 -406h278z" />
    <glyph glyph-name="five.dnom" unicode="&#xf65a;" 
d="M705 258q0 -123 -88 -197.5t-224 -74.5q-204 0 -303 133l72 80q86 -113 231 -113q84 0 137.5 48.5t53.5 119.5q0 76 -52 123t-135 47q-111 0 -194 -80l-88 33v442h534v-100h-409v-275q32 32 83.5 53t110.5 21q113 0 192 -68.5t79 -191.5z" />
    <glyph glyph-name="six.dnom" unicode="&#xf65b;" 
d="M719 256q0 -112 -84.5 -191t-218.5 -79q-88 0 -154.5 34t-105.5 93.5t-58.5 134t-19.5 162.5q0 118 38 211t120 151.5t198 58.5q146 0 240 -94l-60 -86q-37 40 -78 60t-102 20q-77 0 -131 -44.5t-77.5 -110t-24.5 -144.5q0 -23 2 -35q33 49 97 87t136 38
q122 0 202.5 -69.5t80.5 -196.5zM594 252q0 84 -53.5 128t-134.5 44q-57 0 -112 -31t-89 -82q3 -42 16 -80t36.5 -71.5t63.5 -53.5t91 -20q83 0 132.5 51.5t49.5 114.5z" />
    <glyph glyph-name="seven.dnom" unicode="&#xf65c;" horiz-adv-x="741" 
d="M662 735l-340 -735h-138l340 719h-456v100h594v-84z" />
    <glyph glyph-name="eight.dnom" unicode="&#xf65d;" 
d="M711 209q0 -106 -90.5 -164.5t-223.5 -58.5q-134 0 -223.5 58t-89.5 165q0 78 59.5 134.5t147.5 78.5q-83 20 -138 70t-55 124q0 72 46 122.5t111.5 71.5t141.5 21t141.5 -21t111.5 -71.5t46 -122.5q0 -74 -54 -124t-138 -70q88 -22 147.5 -78.5t59.5 -134.5zM573 602
q0 62 -49 96.5t-127 34.5t-128 -34.5t-50 -96.5q0 -96 173 -138q3 -1 5 -1q176 41 176 139zM588 219q0 39 -22.5 70t-56.5 48.5t-62 27t-50 12.5q-22 -3 -50 -12.5t-62 -27t-57 -48.5t-23 -70q0 -62 56 -99.5t136 -37.5t135.5 37.5t55.5 99.5z" />
    <glyph glyph-name="nine.dnom" unicode="&#xf65e;" 
d="M78 561q0 114 83.5 192t219.5 78q88 0 154.5 -33.5t105.5 -93t58.5 -134t19.5 -162.5q0 -117 -38.5 -211t-121.5 -152.5t-199 -58.5q-146 0 -237 94l59 86q70 -80 178 -80q112 0 172 87t62 214v33q-35 -49 -99 -87t-135 -38q-122 0 -202 69.5t-80 196.5zM201 565
q0 -84 53.5 -128t134.5 -44q58 0 113 31t90 84q-4 42 -17 79.5t-36.5 70.5t-62.5 53t-89 20q-86 0 -136 -51.5t-50 -114.5z" />
    <glyph glyph-name="zero.numr" unicode="&#xf661;" 
d="M729 956q0 -63 -12 -122.5t-38 -114.5t-64 -96.5t-94 -66t-124 -24.5t-124.5 24.5t-93.5 66t-62.5 97t-37 114.5t-11.5 122q0 80 19 152.5t56.5 134t103 98.5t150.5 37q84 0 149.5 -37t104.5 -98.5t58.5 -134.5t19.5 -152zM602 956q0 89 -19 158.5t-66.5 116.5t-119.5 47
q-55 0 -95.5 -26t-63.5 -72.5t-34 -102t-11 -121.5t11 -122t34.5 -102t64 -72.5t94.5 -26.5q72 0 119.5 47t66.5 117t19 159z" />
    <glyph glyph-name="one.numr" unicode="&#xf662;" horiz-adv-x="481" 
d="M358 547h-122v659l-136 -141l-71 76l221 225h108v-819z" />
    <glyph glyph-name="two.numr" unicode="&#xf663;" 
d="M698 547h-596v92q256 184 362.5 289.5t106.5 199.5q0 73 -51 111.5t-123 38.5q-71 0 -133 -30.5t-96 -76.5l-68 78q49 62 130 95.5t171 33.5q58 0 109.5 -14.5t93 -42.5t66 -75.5t24.5 -108.5q0 -48 -20.5 -97.5t-54 -94.5t-88 -97t-112 -98t-136.5 -103h415v-100z" />
    <glyph glyph-name="three.numr" unicode="&#xf664;" 
d="M702 770q0 -106 -83 -172t-226 -66q-104 0 -184.5 37.5t-122.5 96.5l68 77q40 -51 103.5 -80.5t133.5 -29.5q88 0 138.5 38.5t50.5 104.5q0 74 -58 108t-155 34q-64 0 -82 -3v103q14 -2 82 -2q91 0 145.5 31.5t54.5 99.5q0 62 -52.5 96.5t-131.5 34.5q-132 0 -223 -98
l-64 71q111 127 299 127q131 0 212 -59.5t81 -159.5q0 -82 -55.5 -129.5t-126.5 -58.5q31 -3 63.5 -16.5t63 -37t50 -62t19.5 -85.5z" />
    <glyph glyph-name="four.numr" unicode="&#xf665;" 
d="M721 752h-117v-205h-123v205h-401v92l354 522h170v-514h117v-100zM481 852v405l-278 -405h278z" />
    <glyph glyph-name="five.numr" unicode="&#xf666;" 
d="M705 805q0 -123 -88 -198t-224 -75q-203 0 -303 134l72 79q86 -112 231 -112q84 0 137.5 48.5t53.5 119.5q0 76 -52 123t-135 47q-111 0 -194 -80l-88 33v442h534v-100h-409v-275q32 32 83.5 53t110.5 21q113 0 192 -68.5t79 -191.5z" />
    <glyph glyph-name="six.numr" unicode="&#xf667;" 
d="M719 803q0 -112 -84.5 -191.5t-218.5 -79.5q-88 0 -154.5 34t-105.5 93.5t-58.5 134t-19.5 162.5q0 118 38 211.5t120 152t198 58.5q146 0 240 -94l-60 -86q-37 40 -78 60t-102 20q-77 0 -131 -44.5t-77.5 -110t-24.5 -144.5q0 -23 2 -35q33 49 97 87t136 38
q122 0 202.5 -69.5t80.5 -196.5zM594 799q0 84 -53.5 128t-134.5 44q-57 0 -112 -31t-89 -82q3 -42 16 -80t36.5 -71.5t63.5 -53.5t91 -20q83 0 132.5 51.5t49.5 114.5z" />
    <glyph glyph-name="seven.numr" unicode="&#xf668;" horiz-adv-x="741" 
d="M662 1282l-340 -735h-138l340 719h-456v100h594v-84z" />
    <glyph glyph-name="eight.numr" unicode="&#xf669;" 
d="M711 756q0 -106 -90.5 -165t-223.5 -59q-134 0 -223.5 58.5t-89.5 165.5q0 78 59.5 134.5t147.5 78.5q-83 20 -138 70t-55 124q0 72 46 122.5t111.5 71.5t141.5 21t141.5 -21t111.5 -71.5t46 -122.5q0 -74 -54 -124t-138 -70q88 -22 147.5 -78.5t59.5 -134.5zM573 1149
q0 62 -49 96.5t-127 34.5t-128 -34.5t-50 -96.5q0 -96 173 -138q3 -1 5 -1q176 41 176 139zM588 766q0 39 -22.5 70t-56.5 48.5t-62 27t-50 12.5q-22 -3 -50 -12.5t-62 -27t-57 -48.5t-23 -70q0 -62 56 -99.5t136 -37.5t135.5 37.5t55.5 99.5z" />
    <glyph glyph-name="nine.numr" unicode="&#xf66a;" 
d="M78 1108q0 114 83.5 192t219.5 78q88 0 154.5 -34t105.5 -93.5t58.5 -134t19.5 -162.5q0 -117 -38.5 -211t-121.5 -152.5t-199 -58.5q-145 0 -237 95l59 86q70 -80 178 -80q112 0 172 87t62 214v33q-35 -49 -99 -87t-135 -38q-122 0 -202 69.5t-80 196.5zM201 1112
q0 -84 53.5 -128t134.5 -44q58 0 113 31t90 84q-4 42 -17 79.5t-36.5 70.5t-62.5 53t-89 20q-86 0 -136 -51.5t-50 -114.5z" />
    <glyph glyph-name="Abreve.smcp" unicode="&#xf66d;" horiz-adv-x="1171" 
d="M492 1126h190l475 -1126h-178l-105 246h-575l-104 -246h-181zM825 387l-237 571l-240 -571h477zM946 1415q-62 -84 -155.5 -132t-202.5 -48q-108 0 -202.5 48t-158.5 132l78 66q49 -69 121.5 -108.5t161.5 -39.5q88 0 161 39t123 109z" />
    <glyph glyph-name="Amacron.smcp" unicode="&#xf66e;" horiz-adv-x="1171" 
d="M492 1126h190l475 -1126h-178l-105 246h-575l-104 -246h-181zM825 387l-237 571l-240 -571h477zM961 1286h-744v98h744v-98z" />
    <glyph glyph-name="Aogonek.smcp" unicode="&#xf66f;" horiz-adv-x="1171" 
d="M492 1126h190l475 -1126q-156 -78 -156 -199q0 -51 25 -76.5t68 -25.5q76 0 104 86l76 -43q-54 -123 -180 -123q-79 0 -132 45t-53 133q0 118 109 203h-39l-105 246h-575l-104 -246h-181zM825 387l-237 571l-240 -571h477z" />
    <glyph glyph-name="AEacute.smcp" unicode="&#xf670;" horiz-adv-x="1681" 
d="M1192 1536l-346 -295h-117l303 295h160zM1577 0h-784v246h-443l-155 -246h-183l721 1126h844v-141h-625v-338h613v-141h-613v-365h625v-141zM793 387v571l-365 -571h365z" />
    <glyph glyph-name="Cacute.smcp" unicode="&#xf671;" horiz-adv-x="1191" 
d="M698 -25q-170 0 -307 74t-216 209.5t-79 306.5q0 170 79 304.5t216 208t307 73.5q145 0 258.5 -61.5t188.5 -169.5l-129 -72q-52 74 -136.5 118t-181.5 44q-187 0 -312.5 -125.5t-125.5 -319.5t125.5 -321t312.5 -127q97 0 183.5 44.5t134.5 117.5l131 -72
q-169 -232 -449 -232zM1028 1536l-346 -295h-117l303 295h160z" />
    <glyph glyph-name="Ccaron.smcp" unicode="&#xf672;" horiz-adv-x="1191" 
d="M698 -25q-170 0 -307 74t-216 209.5t-79 306.5q0 170 79 304.5t216 208t307 73.5q145 0 258.5 -61.5t188.5 -169.5l-129 -72q-52 74 -136.5 118t-181.5 44q-187 0 -312.5 -125.5t-125.5 -319.5t125.5 -321t312.5 -127q97 0 183.5 44.5t134.5 117.5l131 -72
q-169 -232 -449 -232zM778 1241h-147l-201 295h105l170 -217l163 217h105z" />
    <glyph glyph-name="Ccircumflex.smcp" unicode="&#xf673;" horiz-adv-x="1191" 
d="M698 -25q-170 0 -307 74t-216 209.5t-79 306.5q0 170 79 304.5t216 208t307 73.5q145 0 258.5 -61.5t188.5 -169.5l-129 -72q-52 74 -136.5 118t-181.5 44q-187 0 -312.5 -125.5t-125.5 -319.5t125.5 -321t312.5 -127q97 0 183.5 44.5t134.5 117.5l131 -72
q-169 -232 -449 -232zM973 1241h-105l-170 217l-163 -217h-105l195 295h147z" />
    <glyph glyph-name="Cdotaccent.smcp" unicode="&#xf674;" horiz-adv-x="1191" 
d="M698 -25q-170 0 -307 74t-216 209.5t-79 306.5q0 170 79 304.5t216 208t307 73.5q145 0 258.5 -61.5t188.5 -169.5l-129 -72q-52 74 -136.5 118t-181.5 44q-187 0 -312.5 -125.5t-125.5 -319.5t125.5 -321t312.5 -127q97 0 183.5 44.5t134.5 117.5l131 -72
q-169 -232 -449 -232zM702 1288q-39 0 -67.5 28.5t-28.5 67.5q0 40 29 68.5t67 28.5q40 0 68.5 -28.5t28.5 -68.5t-28.5 -68t-68.5 -28z" />
    <glyph glyph-name="Dcaron.smcp" unicode="&#xf675;" horiz-adv-x="1259" 
d="M539 0h-410v1126h410q271 0 435.5 -160.5t164.5 -404.5q0 -119 -42.5 -222t-119 -178t-189.5 -118t-249 -43zM539 141q203 0 318.5 119.5t115.5 300.5q0 185 -114 304.5t-320 119.5h-248v-844h248zM684 1241h-147l-201 295h104l170 -217l164 217h105z" />
    <glyph glyph-name="Dcroat.smcp" unicode="&#xf676;" horiz-adv-x="1282" 
d="M559 0h-409v514h-130v107h130v505h409q271 0 435.5 -160.5t164.5 -404.5q0 -119 -42.5 -222t-119 -178t-189.5 -118t-249 -43zM584 514h-273v-373h248q203 0 318.5 119.5t115.5 300.5q0 185 -114 304.5t-320 119.5h-248v-364h273v-107z" />
    <glyph glyph-name="Ebreve.smcp" unicode="&#xf677;" horiz-adv-x="1042" 
d="M936 0h-782v1126h782v-141h-621v-338h611v-141h-611v-365h621v-141zM901 1415q-62 -84 -155.5 -132t-202.5 -48q-108 0 -202.5 48t-158.5 132l78 66q49 -69 121.5 -108.5t161.5 -39.5q88 0 161 39t123 109z" />
    <glyph glyph-name="Ecaron.smcp" unicode="&#xf678;" horiz-adv-x="1042" 
d="M936 0h-782v1126h782v-141h-621v-338h611v-141h-611v-365h621v-141zM625 1241h-148l-201 295h105l170 -217l164 217h104z" />
    <glyph glyph-name="Edotaccent.smcp" unicode="&#xf679;" horiz-adv-x="1042" 
d="M936 0h-782v1126h782v-141h-621v-338h611v-141h-611v-365h621v-141zM557 1288q-39 0 -67.5 28.5t-28.5 67.5q0 40 28.5 68.5t67.5 28.5q40 0 68 -28.5t28 -68.5t-28 -68t-68 -28z" />
    <glyph glyph-name="Emacron.smcp" unicode="&#xf67a;" horiz-adv-x="1042" 
d="M936 0h-782v1126h782v-141h-621v-338h611v-141h-611v-365h621v-141zM913 1286h-743v98h743v-98z" />
    <glyph glyph-name="Eng.smcp" unicode="&#xf67b;" horiz-adv-x="1294" 
d="M754 -401q-190 0 -305 139l75 117q93 -115 219 -115q108 0 172 63.5t64 167.5v29l-666 877v-877h-159v1126h168l659 -860v860h160v-1167q0 -177 -106.5 -268.5t-280.5 -91.5z" />
    <glyph glyph-name="Eogonek.smcp" unicode="&#xf67c;" horiz-adv-x="1042" 
d="M977 -215l76 -43q-54 -123 -181 -123q-78 0 -131 45t-53 133q0 118 109 203h-643v1126h782v-141h-621v-338h611v-141h-611v-365h621v-141q-156 -78 -156 -199q0 -51 24.5 -76.5t67.5 -25.5q77 0 105 86z" />
    <glyph glyph-name="Gbreve.smcp" unicode="&#xf67d;" horiz-adv-x="1282" 
d="M698 -25q-167 0 -304 73t-217.5 208.5t-80.5 306.5t80.5 306.5t217.5 208.5t304 73q275 0 453 -207l-125 -84q-57 68 -143 108t-185 40q-187 0 -311.5 -125.5t-124.5 -319.5q0 -193 124.5 -319.5t311.5 -126.5q94 0 172.5 34t128.5 82v220h-348v135h508v-416
q-86 -92 -205 -144.5t-256 -52.5zM1061 1415q-62 -84 -156 -132t-203 -48q-107 0 -201.5 48t-158.5 132l78 66q49 -69 121 -108.5t161 -39.5q88 0 161.5 39t123.5 109z" />
    <glyph glyph-name="Gcircumflex.smcp" unicode="&#xf67e;" horiz-adv-x="1282" 
d="M698 -25q-167 0 -304 73t-217.5 208.5t-80.5 306.5t80.5 306.5t217.5 208.5t304 73q275 0 453 -207l-125 -84q-57 68 -143 108t-185 40q-187 0 -311.5 -125.5t-124.5 -319.5q0 -193 124.5 -319.5t311.5 -126.5q94 0 172.5 34t128.5 82v220h-348v135h508v-416
q-86 -92 -205 -144.5t-256 -52.5zM971 1241h-105l-170 217l-164 -217h-104l195 295h147z" />
    <glyph glyph-name="Gcommaaccent.smcp" unicode="&#xf67f;" horiz-adv-x="1282" 
d="M698 -25q-167 0 -304 73t-217.5 208.5t-80.5 306.5t80.5 306.5t217.5 208.5t304 73q275 0 453 -207l-125 -84q-57 68 -143 108t-185 40q-187 0 -311.5 -125.5t-124.5 -319.5q0 -193 124.5 -319.5t311.5 -126.5q94 0 172.5 34t128.5 82v220h-348v135h508v-416
q-86 -92 -205 -144.5t-256 -52.5zM813 -283q0 -80 -41 -153.5t-104 -120.5l-66 53q45 31 79 81.5t38 94.5l-9 -1q-9 -1 -14 -1q-37 0 -61.5 25.5t-24.5 64.5t28 67t67 28q45 0 76.5 -37.5t31.5 -100.5z" />
    <glyph glyph-name="Gdotaccent.smcp" unicode="&#xf680;" horiz-adv-x="1282" 
d="M698 -25q-167 0 -304 73t-217.5 208.5t-80.5 306.5t80.5 306.5t217.5 208.5t304 73q275 0 453 -207l-125 -84q-57 68 -143 108t-185 40q-187 0 -311.5 -125.5t-124.5 -319.5q0 -193 124.5 -319.5t311.5 -126.5q94 0 172.5 34t128.5 82v220h-348v135h508v-416
q-86 -92 -205 -144.5t-256 -52.5zM700 1288q-39 0 -67.5 28.5t-28.5 67.5q0 40 29 68.5t67 28.5q40 0 68.5 -28.5t28.5 -68.5t-28.5 -68t-68.5 -28z" />
    <glyph glyph-name="Hcircumflex.smcp" unicode="&#xf681;" horiz-adv-x="1300" 
d="M1147 0h-158v508h-674v-508h-161v1126h161v-477h674v477h158v-1126zM918 1241h-105l-170 217l-164 -217h-104l194 295h148z" />
    <glyph glyph-name="Hbar.smcp" unicode="&#xf682;" horiz-adv-x="1341" 
d="M1167 0h-157v508h-674v-508h-162v842h-154v98h154v186h162v-186h674v186h157v-186h152v-98h-152v-842zM336 649h674v193h-674v-193z" />
    <glyph glyph-name="Ibreve.smcp" unicode="&#xf683;" horiz-adv-x="464" 
d="M313 0h-161v1126h161v-1126zM586 1415q-62 -84 -156 -132t-203 -48q-107 0 -201.5 48t-158.5 132l78 66q49 -69 121 -108.5t161 -39.5q88 0 161.5 39t123.5 109z" />
    <glyph glyph-name="IJ.smcp" unicode="&#xf684;" horiz-adv-x="1333" 
d="M315 0h-161v1126h161v-1126zM793 -25q-192 0 -308 140l78 116q89 -114 219 -114q108 0 172 63.5t64 167.5v778h160v-790q0 -177 -106.5 -269t-278.5 -92z" />
    <glyph glyph-name="Imacron.smcp" unicode="&#xf685;" horiz-adv-x="464" 
d="M313 0h-161v1126h161v-1126zM606 1286h-743v98h743v-98z" />
    <glyph glyph-name="Iogonek.smcp" unicode="&#xf686;" horiz-adv-x="464" 
d="M354 -215l76 -43q-54 -123 -180 -123q-78 0 -131 45t-53 133q0 119 108 203h-22v1126h161v-1126q-155 -78 -155 -199q0 -51 24.5 -76.5t67.5 -25.5q76 0 104 86z" />
    <glyph glyph-name="Itilde.smcp" unicode="&#xf687;" horiz-adv-x="464" 
d="M313 0h-161v1126h161v-1126zM356 1210q-34 0 -62.5 14t-46.5 35t-35.5 45.5t-31.5 45.5t-33.5 35t-42.5 14q-44 0 -71 -44t-27 -132h-92q0 123 52.5 198.5t146.5 75.5q41 0 73 -19.5t52 -47t38 -55t40 -47t49 -19.5q44 0 71 44t27 132h92q0 -123 -52.5 -199t-146.5 -76z
" />
    <glyph glyph-name="Jcircumflex.smcp" unicode="&#xf688;" horiz-adv-x="864" 
d="M324 -25q-192 0 -308 140l78 116q89 -114 219 -114q108 0 172 63.5t64 167.5v778h160v-790q0 -177 -106.5 -269t-278.5 -92zM899 1241h-104l-170 217l-164 -217h-105l195 295h147z" />
    <glyph glyph-name="Kcommaaccent.smcp" unicode="&#xf689;" horiz-adv-x="1093" 
d="M1065 0h-199l-442 498l-109 -119v-379h-161v1126h161v-563l508 563h201l-496 -534zM664 -283q0 -80 -41.5 -153.5t-104.5 -120.5l-65 53q45 31 78.5 81.5t37.5 94.5l-9 -1q-8 -1 -13 -1q-37 0 -61.5 25.5t-24.5 64.5t27.5 67t66.5 28q45 0 77 -37.5t32 -100.5z" />
    <glyph glyph-name="Lacute.smcp" unicode="&#xf68a;" horiz-adv-x="937" 
d="M860 0h-706v1126h161v-985h545v-141zM844 1536l-346 -295h-117l303 295h160z" />
    <glyph glyph-name="Lcaron.smcp" unicode="&#xf68b;" horiz-adv-x="937" 
d="M860 0h-706v1126h161v-985h545v-141zM682 1010q0 -80 -41 -154.5t-104 -120.5l-66 53q45 31 79 82t38 95l-9 -1q-9 -1 -14 -1q-37 0 -61.5 25.5t-24.5 64.5t27.5 66.5t66.5 27.5q45 0 77 -37t32 -100z" />
    <glyph glyph-name="Lcommaaccent.smcp" unicode="&#xf68c;" horiz-adv-x="937" 
d="M860 0h-706v1126h161v-985h545v-141zM612 -283q0 -80 -41 -153.5t-104 -120.5l-66 53q45 31 79 81.5t38 94.5l-8 -1q-9 -1 -14 -1q-37 0 -61.5 25.5t-24.5 64.5t27.5 67t66.5 28q45 0 76.5 -37.5t31.5 -100.5z" />
    <glyph glyph-name="Ldot.smcp" unicode="&#xf68d;" horiz-adv-x="966" 
d="M860 0h-706v1126h161v-985h545v-141zM840 602q0 -46 -33.5 -79.5t-79.5 -33.5t-79.5 33.5t-33.5 79.5q0 44 33.5 77.5t79.5 33.5t79.5 -33.5t33.5 -77.5z" />
    <glyph glyph-name="Nacute.smcp" unicode="&#xf68e;" horiz-adv-x="1294" 
d="M1141 0h-162l-666 877v-877h-159v1126h168l659 -860v860h160v-1126zM973 1536l-346 -295h-117l303 295h160z" />
    <glyph glyph-name="Ncaron.smcp" unicode="&#xf68f;" horiz-adv-x="1294" 
d="M1141 0h-162l-666 877v-877h-159v1126h168l659 -860v860h160v-1126zM723 1241h-148l-200 295h104l170 -217l164 217h105z" />
    <glyph glyph-name="Ncommaaccent.smcp" unicode="&#xf690;" horiz-adv-x="1294" 
d="M1141 0h-162l-666 877v-877h-159v1126h168l659 -860v860h160v-1126zM752 -283q0 -80 -41.5 -153.5t-104.5 -120.5l-65 53q45 31 78.5 81.5t37.5 94.5l-9 -1q-8 -1 -13 -1q-37 0 -61.5 25.5t-24.5 64.5t27.5 67t66.5 28q45 0 77 -37.5t32 -100.5z" />
    <glyph glyph-name="Obreve.smcp" unicode="&#xf691;" horiz-adv-x="1355" 
d="M678 -25q-129 0 -238.5 45.5t-184.5 124t-117 186.5t-42 232t42 232t117 186.5t184.5 124t238.5 45.5t238.5 -45.5t184.5 -124t117 -186.5t42 -232t-42 -232t-117 -186.5t-184.5 -124t-238.5 -45.5zM678 117q188 0 303 126t115 320q0 195 -115 321t-303 126t-303 -126
t-115 -321q0 -194 115 -320t303 -126zM1040 1415q-62 -84 -155.5 -132t-202.5 -48q-107 0 -201.5 48t-158.5 132l77 66q49 -69 121.5 -108.5t161.5 -39.5q88 0 161.5 39t123.5 109z" />
    <glyph glyph-name="Ohungarumlaut.smcp" unicode="&#xf692;" horiz-adv-x="1355" 
d="M678 -25q-129 0 -238.5 45.5t-184.5 124t-117 186.5t-42 232t42 232t117 186.5t184.5 124t238.5 45.5t238.5 -45.5t184.5 -124t117 -186.5t42 -232t-42 -232t-117 -186.5t-184.5 -124t-238.5 -45.5zM678 117q188 0 303 126t115 320q0 195 -115 321t-303 126t-303 -126
t-115 -321q0 -194 115 -320t303 -126zM793 1536l-236 -295h-98l192 295h142zM1083 1536l-235 -295h-98l192 295h141z" />
    <glyph glyph-name="Omacron.smcp" unicode="&#xf693;" horiz-adv-x="1355" 
d="M678 -25q-129 0 -238.5 45.5t-184.5 124t-117 186.5t-42 232t42 232t117 186.5t184.5 124t238.5 45.5t238.5 -45.5t184.5 -124t117 -186.5t42 -232t-42 -232t-117 -186.5t-184.5 -124t-238.5 -45.5zM678 117q188 0 303 126t115 320q0 195 -115 321t-303 126t-303 -126
t-115 -321q0 -194 115 -320t303 -126zM1051 1300h-744v99h744v-99z" />
    <glyph glyph-name="Oslashacute.smcp" unicode="&#xf694;" horiz-adv-x="1355" 
d="M678 -25q-174 0 -309 80l-41 -55h-138l89 121q-88 80 -135.5 194.5t-47.5 247.5q0 124 42 232t117 186.5t184.5 124t238.5 45.5q166 0 303 -78l39 53h137l-86 -118q90 -80 139.5 -195.5t49.5 -249.5q0 -124 -42 -232t-117 -186.5t-184.5 -124t-238.5 -45.5zM678 117
q188 0 303 126t115 320q0 196 -117 322l-522 -709q92 -59 221 -59zM260 563q0 -194 111 -317l522 708q-98 56 -215 56q-188 0 -303 -126t-115 -321zM1010 1536l-346 -295h-117l303 295h160z" />
    <glyph glyph-name="Racute.smcp" unicode="&#xf695;" horiz-adv-x="1116" 
d="M1024 0h-188l-295 438h-226v-438h-161v1126h483q174 0 273.5 -97t99.5 -247q0 -144 -84.5 -233t-220.5 -98zM623 578q107 0 164 56t57 148t-58 147.5t-163 55.5h-308v-407h308zM870 1536l-346 -295h-116l303 295h159z" />
    <glyph glyph-name="Rcaron.smcp" unicode="&#xf696;" horiz-adv-x="1116" 
d="M1024 0h-188l-295 438h-226v-438h-161v1126h483q174 0 273.5 -97t99.5 -247q0 -144 -84.5 -233t-220.5 -98zM623 578q107 0 164 56t57 148t-58 147.5t-163 55.5h-308v-407h308zM618 1241h-147l-201 295h105l170 -217l164 217h104z" />
    <glyph glyph-name="Rcommaaccent.smcp" unicode="&#xf697;" horiz-adv-x="1116" 
d="M1024 0h-188l-295 438h-226v-438h-161v1126h483q174 0 273.5 -97t99.5 -247q0 -144 -84.5 -233t-220.5 -98zM623 578q107 0 164 56t57 148t-58 147.5t-163 55.5h-308v-407h308zM659 -283q0 -80 -41 -153.5t-104 -120.5l-65 53q45 31 78.5 81.5t37.5 94.5l-9 -1
q-8 -1 -13 -1q-37 0 -61.5 25.5t-24.5 64.5t27.5 67t66.5 28q45 0 76.5 -37.5t31.5 -100.5z" />
    <glyph glyph-name="Sacute.smcp" unicode="&#xf698;" horiz-adv-x="1032" 
d="M516 -25q-143 0 -260 49t-190 128l86 120q63 -68 159 -112.5t209 -44.5q139 0 207 55t68 137q0 51 -30 88t-78.5 57.5t-111 39t-127 32t-127 38t-111 55.5t-78.5 86t-30 128q0 139 117 229.5t291 90.5q263 0 422 -162l-84 -112q-62 67 -152 101t-186 34q-106 0 -174 -50
t-68 -128q0 -39 23.5 -68t63.5 -47.5t92 -33t109 -29t114 -31t109 -42.5t92 -60.5t63.5 -88t23.5 -121.5q0 -150 -112.5 -244t-329.5 -94zM846 1536l-346 -295h-117l303 295h160z" />
    <glyph glyph-name="Scedilla.smcp" unicode="&#xf699;" horiz-adv-x="1032" 
d="M510 -391q-63 0 -118.5 17.5t-88.5 43.5l39 78q73 -59 164 -59q53 0 89 23t36 63q0 33 -19.5 52t-56.5 19q-51 0 -78 -34l-67 38l47 127q-124 10 -225.5 57t-165.5 118l86 120q63 -68 159 -112.5t209 -44.5q139 0 207 55t68 137q0 51 -30 88t-78.5 57.5t-111 39t-127 32
t-127 38t-111 55.5t-78.5 86t-30 128q0 139 117 229.5t291 90.5q263 0 422 -162l-84 -112q-62 67 -152 101t-186 34q-106 0 -174 -50t-68 -128q0 -39 23.5 -68t63.5 -47.5t92 -33t109 -29t114 -31t109 -42.5t92 -60.5t63.5 -88t23.5 -121.5q0 -145 -105 -238t-306 -100
l-35 -88q29 23 76 23q59 0 97 -37.5t38 -99.5q0 -74 -61 -119t-152 -45z" />
    <glyph glyph-name="Scircumflex.smcp" unicode="&#xf69a;" horiz-adv-x="1032" 
d="M516 -25q-143 0 -260 49t-190 128l86 120q63 -68 159 -112.5t209 -44.5q139 0 207 55t68 137q0 51 -30 88t-78.5 57.5t-111 39t-127 32t-127 38t-111 55.5t-78.5 86t-30 128q0 139 117 229.5t291 90.5q263 0 422 -162l-84 -112q-62 67 -152 101t-186 34q-106 0 -174 -50
t-68 -128q0 -39 23.5 -68t63.5 -47.5t92 -33t109 -29t114 -31t109 -42.5t92 -60.5t63.5 -88t23.5 -121.5q0 -150 -112.5 -244t-329.5 -94zM791 1241h-105l-170 217l-164 -217h-104l194 295h148z" />
    <glyph glyph-name="Scommaaccent.smcp" unicode="&#xf69b;" horiz-adv-x="1032" 
d="M516 -25q-143 0 -260 49t-190 128l86 120q63 -68 159 -112.5t209 -44.5q139 0 207 55t68 137q0 51 -30 88t-78.5 57.5t-111 39t-127 32t-127 38t-111 55.5t-78.5 86t-30 128q0 139 117 229.5t291 90.5q263 0 422 -162l-84 -112q-62 67 -152 101t-186 34q-106 0 -174 -50
t-68 -128q0 -39 23.5 -68t63.5 -47.5t92 -33t109 -29t114 -31t109 -42.5t92 -60.5t63.5 -88t23.5 -121.5q0 -150 -112.5 -244t-329.5 -94zM631 -283q0 -80 -41.5 -153.5t-104.5 -120.5l-65 53q45 31 79 81.5t38 94.5l-9 -1q-9 -1 -14 -1q-37 0 -61.5 25.5t-24.5 64.5
t27.5 67t66.5 28q45 0 77 -37.5t32 -100.5z" />
    <glyph glyph-name="Tbar.smcp" unicode="&#xf69c;" horiz-adv-x="966" 
d="M563 0h-160v494h-239v98h239v393h-350v141h858v-141h-348v-393h240v-98h-240v-494z" />
    <glyph glyph-name="Tcaron.smcp" unicode="&#xf69d;" horiz-adv-x="966" 
d="M563 0h-160v985h-350v141h858v-141h-348v-985zM561 1241h-147l-201 295h104l170 -217l164 217h105z" />
    <glyph glyph-name="Tcommaaccent.smcp" unicode="&#xf69e;" horiz-adv-x="966" 
d="M563 0h-160v985h-350v141h858v-141h-348v-985zM590 -283q0 -80 -41.5 -153.5t-104.5 -120.5l-65 53q45 31 79 81.5t38 94.5l-9 -1q-9 -1 -14 -1q-37 0 -61.5 25.5t-24.5 64.5t27.5 67t66.5 28q45 0 77 -37.5t32 -100.5z" />
    <glyph glyph-name="Ubreve.smcp" unicode="&#xf69f;" horiz-adv-x="1275" 
d="M637 -25q-236 0 -359.5 123t-123.5 336v692h161v-682q0 -153 83.5 -240t238.5 -87t239.5 87t84.5 240v682h161v-692q0 -214 -124 -336.5t-361 -122.5zM995 1415q-62 -84 -155.5 -132t-202.5 -48q-108 0 -202.5 48t-158.5 132l78 66q49 -69 121.5 -108.5t161.5 -39.5
q88 0 161.5 39t123.5 109z" />
    <glyph glyph-name="Uhungarumlaut.smcp" unicode="&#xf6a0;" horiz-adv-x="1275" 
d="M637 -25q-236 0 -359.5 123t-123.5 336v692h161v-682q0 -153 83.5 -240t238.5 -87t239.5 87t84.5 240v682h161v-692q0 -214 -124 -336.5t-361 -122.5zM748 1536l-236 -295h-98l192 295h142zM1038 1536l-235 -295h-98l192 295h141z" />
    <glyph glyph-name="Umacron.smcp" unicode="&#xf6a1;" horiz-adv-x="1275" 
d="M637 -25q-236 0 -359.5 123t-123.5 336v692h161v-682q0 -153 83.5 -240t238.5 -87t239.5 87t84.5 240v682h161v-692q0 -214 -124 -336.5t-361 -122.5zM1012 1286h-744v98h744v-98z" />
    <glyph glyph-name="Uogonek.smcp" unicode="&#xf6a2;" horiz-adv-x="1275" 
d="M637 -25q-236 0 -359.5 123t-123.5 336v692h161v-682q0 -153 83.5 -240t238.5 -87t239.5 87t84.5 240v682h161v-692q0 -167 -76 -279.5t-223 -154.5q-155 -78 -155 -199q0 -51 24.5 -76.5t67.5 -25.5q76 0 104 86l76 -43q-54 -123 -180 -123q-79 0 -132 45t-53 133
q0 98 80 178h-18z" />
    <glyph glyph-name="Uring.smcp" unicode="&#xf6a3;" horiz-adv-x="1275" 
d="M637 -25q-236 0 -359.5 123t-123.5 336v692h161v-682q0 -153 83.5 -240t238.5 -87t239.5 87t84.5 240v682h161v-692q0 -214 -124 -336.5t-361 -122.5zM643 1237q-83 0 -143 60t-60 143t60 142.5t143 59.5t141 -59t58 -143t-58 -143.5t-141 -59.5zM643 1319q49 0 84 35.5
t35 85.5t-35 85.5t-84 35.5q-51 0 -86 -35.5t-35 -85.5t35 -85.5t86 -35.5z" />
    <glyph glyph-name="Utilde.smcp" unicode="&#xf6a4;" horiz-adv-x="1275" 
d="M637 -25q-236 0 -359.5 123t-123.5 336v692h161v-682q0 -153 83.5 -240t238.5 -87t239.5 87t84.5 240v682h161v-692q0 -214 -124 -336.5t-361 -122.5zM760 1237q-41 0 -73 19.5t-52 47t-38 55t-40 47t-49 19.5q-44 0 -71 -44t-27 -132h-93q0 123 52.5 199t146.5 76
q34 0 62.5 -14t46.5 -35t35.5 -45.5t31.5 -45.5t33.5 -35t42.5 -14q44 0 71 44t27 132h92q0 -123 -52 -198.5t-146 -75.5z" />
    <glyph glyph-name="Wcircumflex.smcp" unicode="&#xf6a6;" horiz-adv-x="1564" 
d="M1055 1241h-105l-170 217l-164 -217h-104l195 295h147zM1204 0h-168l-256 883l-252 -883h-170l-338 1126h179l252 -907l264 907h135l262 -909l254 909h176z" />
    <glyph glyph-name="Ycircumflex.smcp" unicode="&#xf6a9;" horiz-adv-x="1120" 
d="M643 0h-160v477l-469 649h187l364 -512l357 512h184l-463 -649v-477zM838 1241h-105l-170 217l-164 -217h-104l194 295h148z" />
    <glyph glyph-name="Zacute.smcp" unicode="&#xf6ab;" horiz-adv-x="1056" 
d="M977 0h-895v121l666 864h-666v141h881v-120l-666 -865h680v-141zM854 1536l-346 -295h-117l303 295h160z" />
    <glyph glyph-name="Zdotaccent.smcp" unicode="&#xf6ac;" horiz-adv-x="1056" 
d="M977 0h-895v121l666 864h-666v141h881v-120l-666 -865h680v-141zM543 1288q-39 0 -68 28.5t-29 67.5t29 68t68 29q40 0 68 -28.5t28 -68.5t-28 -68t-68 -28z" />
    <glyph glyph-name="Idotaccent.smcp" unicode="&#xf6ad;" horiz-adv-x="413" 
d="M291 0h-162v1126h162v-1126zM209 1288q-39 0 -67.5 28.5t-28.5 67.5q0 40 28.5 68.5t67.5 28.5q40 0 68 -28.5t28 -68.5t-28 -68t-68 -28z" />
    <glyph glyph-name="parenleft.case" unicode="&#xf6ae;" horiz-adv-x="507" 
d="M473 -152l-94 -71q-139 192 -214 425.5t-75 479.5t75 479.5t214 425.5l94 -69q-109 -213 -162 -404t-53 -432q0 -240 53 -431.5t162 -402.5z" />
    <glyph glyph-name="parenright.case" unicode="&#xf6af;" horiz-adv-x="507" 
d="M35 -152l94 -71q139 192 214 425.5t75 479.5t-75 479.5t-214 425.5l-94 -69q109 -213 162 -404t53 -432q0 -240 -53 -431.5t-162 -402.5z" />
    <glyph glyph-name="bracketleft.case" unicode="&#xf6b0;" horiz-adv-x="497" 
d="M463 -205h-381v1778h381v-113h-260v-1552h260v-113z" />
    <glyph glyph-name="bracketright.case" unicode="&#xf6b1;" horiz-adv-x="497" 
d="M418 -205h-383v113h262v1552h-262v113h383v-1778z" />
    <glyph glyph-name="braceleft.case" unicode="&#xf6b2;" horiz-adv-x="534" 
d="M500 -205h-127q-101 0 -177.5 77t-76.5 198v422q0 61 -28 101t-81 40v102q53 0 81 40.5t28 101.5v419q0 123 76 200t178 77h127v-113h-127q-55 0 -95 -46t-40 -116v-434q0 -140 -93 -180q93 -40 93 -180v-432q0 -69 40 -116.5t95 -47.5h127v-113z" />
    <glyph glyph-name="braceright.case" unicode="&#xf6b3;" horiz-adv-x="534" 
d="M35 -205v113h125q56 0 96.5 47t40.5 117v432q0 141 92 180q-92 39 -92 180v434q0 71 -40 116.5t-97 45.5h-125v113h125q103 0 179.5 -77t76.5 -200v-419q0 -61 27.5 -101.5t78.5 -40.5v-102q-51 0 -78.5 -40t-27.5 -101v-422q0 -121 -76.5 -198t-179.5 -77h-125z" />
    <glyph glyph-name="exclamdown.case" unicode="&#xf6b4;" horiz-adv-x="471" 
d="M139 0l31 983h129l33 -983h-193zM123 1274q0 46 33.5 79t79.5 33t78 -33t32 -79q0 -45 -32.5 -78t-77.5 -33q-46 0 -79.5 33.5t-33.5 77.5z" />
    <glyph glyph-name="questiondown.case" unicode="&#xf6b5;" horiz-adv-x="946" 
d="M530 983q78 -67 78 -168q0 -72 -38 -129.5t-92 -96.5t-108 -76.5t-92 -87t-38 -108.5q0 -81 62 -135.5t177 -54.5q111 0 189 42.5t139 123.5l102 -109q-76 -99 -188.5 -154t-255.5 -55q-183 0 -292.5 91t-109.5 227q0 63 22 116t57 90.5t77 70.5t84 61.5t77 57t57 64.5
t22 76q0 26 -14 53.5t-39 45.5zM487 1386q46 0 79.5 -33t33.5 -79t-33.5 -79.5t-79.5 -33.5t-79 33.5t-33 79.5t33 79t79 33z" />
    <glyph glyph-name="guillemotleft.case" unicode="&#xf6b6;" horiz-adv-x="899" 
d="M838 332h-154l-328 368l328 363h154l-328 -363zM543 332h-154l-328 368l328 363h154l-328 -363z" />
    <glyph glyph-name="guillemotright.case" unicode="&#xf6b7;" horiz-adv-x="899" 
d="M543 700l-328 -368h-154l328 368l-328 363h154zM838 700l-328 -368h-154l328 368l-328 363h154z" />
    <glyph glyph-name="guilsinglleft.case" unicode="&#xf6b8;" horiz-adv-x="604" 
d="M543 332h-154l-328 368l328 363h154l-328 -363z" />
    <glyph glyph-name="guilsinglright.case" unicode="&#xf6b9;" horiz-adv-x="604" 
d="M543 700l-328 -368h-154l328 368l-328 363h154z" />
    <glyph glyph-name="hyphen.case" unicode="&#xf6ba;" horiz-adv-x="614" 
d="M553 631h-492v135h492v-135z" />
    <glyph glyph-name="endash.case" unicode="&#xf6bb;" horiz-adv-x="1214" 
d="M1153 631h-1092v135h1092v-135z" />
    <glyph glyph-name="emdash.case" unicode="&#xf6bc;" horiz-adv-x="1705" 
d="M1645 631h-1584v135h1584v-135z" />
    <glyph glyph-name="periodcentered.case" unicode="&#xf6bd;" horiz-adv-x="473" 
d="M348 702q0 -46 -33 -79t-79 -33t-79.5 33t-33.5 79q0 44 33.5 77.5t79.5 33.5t79 -33.5t33 -77.5z" />
    <glyph glyph-name="bullet.case" unicode="&#xf6be;" horiz-adv-x="733" 
d="M590 698q0 -89 -65 -154t-156 -65t-156.5 65t-65.5 154q0 91 65.5 156.5t156.5 65.5t156 -65.5t65 -156.5z" />
    <glyph glyph-name="cent.case" unicode="&#xf6bf;" horiz-adv-x="1015" 
d="M516 -18v184q-189 26 -304.5 169.5t-115.5 346.5q0 201 115.5 343.5t304.5 168.5v149h121v-145q192 -15 315 -170l-102 -92q-82 113 -213 125v-760q129 12 213 127l102 -94q-122 -157 -315 -170v-182h-121zM256 682q0 -144 69.5 -245.5t190.5 -129.5v748
q-120 -27 -190 -129t-70 -244z" />
    <glyph glyph-name="commaaccent" unicode="&#xf6c3;" horiz-adv-x="471" 
d="M342 -283q0 -80 -41 -153.5t-104 -120.5l-66 53q45 31 79 81.5t38 94.5l-9 -1q-9 -1 -14 -1q-37 0 -61.5 25.5t-24.5 64.5t27.5 67t66.5 28q45 0 77 -37.5t32 -100.5z" />
    <glyph glyph-name="one.tnum" unicode="&#xf6dc;" horiz-adv-x="1224" 
d="M811 0h-170v1143l-219 -234l-103 105l343 352h149v-1366z" />
    <glyph glyph-name="rupiah" unicode="&#xf6dd;" horiz-adv-x="2306" 
d="M1151 0h-201l-346 543h-274v-543h-170v1366h549q190 0 310 -112.5t120 -299.5q0 -89 -29.5 -163t-79.5 -122.5t-113.5 -77t-134.5 -34.5zM688 692q121 0 198 73t77 189t-76.5 188t-198.5 72h-358v-522h358zM1776 -25q-100 0 -185.5 46t-148.5 129v-527h-154v1366h154
v-147q56 78 144.5 125t189.5 47q197 0 318.5 -139.5t121.5 -378.5q0 -237 -121.5 -379t-318.5 -142zM1737 113q146 0 231.5 107.5t85.5 275.5t-85.5 274.5t-231.5 106.5q-88 0 -171 -46t-124 -112v-447q41 -67 124 -113t171 -46z" />
    <glyph glyph-name="centinferior" unicode="&#xf6df;" horiz-adv-x="628" 
d="M322 -309v112q-118 15 -191.5 100.5t-73.5 207.5t73.5 207t191.5 100v90h84v-88q117 -10 194 -109l-78 -59q-48 66 -116 78v-439q68 12 116 78l78 -61q-75 -97 -194 -107v-110h-84zM174 111q0 -83 40 -140.5t108 -74.5v430q-68 -17 -108 -75t-40 -140z" />
    <glyph glyph-name="centsuperior" unicode="&#xf6e0;" horiz-adv-x="628" 
d="M322 852v111q-118 15 -191.5 100.5t-73.5 208.5q0 122 73.5 207t191.5 100v90h84v-88q118 -10 194 -108l-78 -60q-48 66 -116 78v-438q71 12 116 77l78 -61q-74 -95 -194 -108v-109h-84zM174 1272q0 -83 40 -140.5t108 -74.5v430q-68 -17 -108 -75t-40 -140z" />
    <glyph glyph-name="commainferior" unicode="&#xf6e1;" horiz-adv-x="284" 
d="M215 -250q0 -63 -28.5 -118.5t-75.5 -88.5q-9 8 -54 43q30 19 55.5 51t28.5 60q-1 0 -4 -1t-4 -1q-28 0 -51 22t-23 52q0 31 23 53t55 22q34 0 56 -26.5t22 -67.5z" />
    <glyph glyph-name="commasuperior" unicode="&#xf6e2;" horiz-adv-x="284" 
d="M215 911q0 -63 -28.5 -118t-75.5 -88q-9 8 -54 43q30 19 55.5 50.5t28.5 59.5q-1 0 -4 -1t-4 -1q-28 0 -51 22t-23 52q0 31 23 53.5t55 22.5q34 0 56 -27t22 -68z" />
    <glyph glyph-name="dollarinferior" unicode="&#xf6e3;" horiz-adv-x="757" 
d="M346 -422v111q-195 12 -295 133l72 80q97 -101 223 -117v285q-52 13 -82 21.5t-72 27.5t-65 41.5t-40 59t-17 83.5q0 94 76.5 157.5t199.5 69.5v115h86v-117q158 -14 250 -116l-72 -72q-70 77 -178 92v-258q48 -12 80.5 -22t73 -30t64 -43.5t40.5 -61.5t17 -85
q0 -104 -71 -168.5t-204 -74.5v-111h-86zM582 -80q0 52 -38.5 80.5t-111.5 48.5v-262q73 9 111.5 45t38.5 88zM195 313q0 -47 38 -72.5t113 -45.5v241q-67 -6 -109 -40t-42 -83z" />
    <glyph glyph-name="dollarsuperior" unicode="&#xf6e4;" horiz-adv-x="757" 
d="M346 739v109q-193 12 -295 135l72 80q93 -100 223 -117v285q-52 13 -82 21.5t-72 27.5t-65 41.5t-40 59t-17 83.5q0 94 77 158t199 70v114h86v-116q157 -14 250 -117l-72 -72q-70 77 -178 92v-258q49 -12 81 -22t72.5 -29.5t64 -43t40.5 -61.5t17 -85q0 -104 -71 -169
t-204 -75v-111h-86zM582 1081q0 52 -38.5 80.5t-111.5 48.5v-264q73 10 111.5 47t38.5 88zM195 1475q0 -47 38.5 -73t112.5 -46v241q-67 -6 -109 -39.5t-42 -82.5z" />
    <glyph glyph-name="hypheninferior" unicode="&#xf6e5;" horiz-adv-x="376" 
d="M340 61h-303v97h303v-97z" />
    <glyph glyph-name="hyphensuperior" unicode="&#xf6e6;" horiz-adv-x="376" 
d="M340 1225h-303v96h303v-96z" />
    <glyph glyph-name="periodinferior" unicode="&#xf6e7;" horiz-adv-x="292" 
d="M223 -231q0 -31 -22.5 -53.5t-53.5 -22.5q-32 0 -54.5 22.5t-22.5 53.5t22.5 53t54.5 22q31 0 53.5 -22t22.5 -53z" />
    <glyph glyph-name="periodsuperior" unicode="&#xf6e8;" horiz-adv-x="292" 
d="M223 930q0 -31 -22.5 -53.5t-53.5 -22.5q-32 0 -54.5 22.5t-22.5 53.5t22.5 53.5t54.5 22.5q31 0 53.5 -22.5t22.5 -53.5z" />
    <glyph glyph-name="asuperior" unicode="&#xf6e9;" horiz-adv-x="774" 
d="M651 668h-116v71q-85 -88 -222 -88q-91 0 -160 58t-69 155q0 100 68.5 155.5t160.5 55.5q139 0 222 -86v113q0 61 -47.5 97t-116.5 36q-123 0 -201 -94l-53 78q105 108 268 108q117 0 191.5 -55t74.5 -172v-432zM358 729q53 0 100.5 21t76.5 57v115q-29 36 -76.5 56.5
t-100.5 20.5q-68 0 -111.5 -37.5t-43.5 -97.5q0 -61 43.5 -98t111.5 -37z" />
    <glyph glyph-name="bsuperior" unicode="&#xf6ea;" horiz-adv-x="839" 
d="M432 748q93 0 149 66.5t56 174.5q0 107 -56 174.5t-149 67.5q-57 0 -110 -26.5t-80 -65.5v-301q27 -39 79.5 -64.5t110.5 -25.5zM242 668h-119v888h119v-339q40 53 97.5 81.5t123.5 28.5q131 0 213 -91.5t82 -246.5t-82.5 -246.5t-212.5 -91.5q-67 0 -125 30t-96 81v-94z
" />
    <glyph glyph-name="dsuperior" unicode="&#xf6eb;" horiz-adv-x="839" 
d="M717 668h-117v94q-39 -51 -97.5 -81t-125.5 -30q-130 0 -212.5 91.5t-82.5 246.5q0 154 82.5 246t212.5 92q66 0 123.5 -28.5t97.5 -81.5v339h119v-888zM408 748q59 0 111 25.5t81 64.5v301q-29 40 -81.5 66t-110.5 26q-93 0 -148 -67.5t-55 -174.5q0 -108 55 -174.5
t148 -66.5z" />
    <glyph glyph-name="esuperior" unicode="&#xf6ec;" horiz-adv-x="815" 
d="M424 651q-149 0 -245.5 94t-96.5 244q0 141 94.5 239.5t237.5 98.5q145 0 232 -98t87 -250v-29h-528q8 -89 69.5 -149t159.5 -60q123 0 201 78l53 -69q-104 -99 -264 -99zM621 1036q-2 36 -15 70t-37 64.5t-65 49.5t-92 19q-93 0 -147.5 -62t-59.5 -141h416z" />
    <glyph glyph-name="isuperior" unicode="&#xf6ed;" horiz-adv-x="331" 
d="M166 1403q-31 0 -53.5 22.5t-22.5 53.5t22.5 53t53.5 22t53.5 -22t22.5 -53t-22.5 -53.5t-53.5 -22.5zM225 668h-119v643h119v-643z" />
    <glyph glyph-name="lsuperior" unicode="&#xf6ee;" horiz-adv-x="364" 
d="M242 668h-119v888h119v-888z" />
    <glyph glyph-name="msuperior" unicode="&#xf6ef;" horiz-adv-x="1169" 
d="M1047 668h-117v428q0 133 -119 133q-47 0 -94 -28t-74 -66v-467h-117v428q0 133 -118 133q-47 0 -93 -28t-73 -66v-467h-119v643h119v-90q25 36 86 71t129 35q70 0 116 -33t62 -86q31 47 93 83t132 36q90 0 138.5 -51.5t48.5 -153.5v-454z" />
    <glyph glyph-name="osuperior" unicode="&#xf6f0;" horiz-adv-x="829" 
d="M414 651q-148 0 -240 98t-92 240q0 143 91.5 240.5t240.5 97.5q151 0 242.5 -97t91.5 -241q0 -143 -91.5 -240.5t-242.5 -97.5zM414 750q98 0 155.5 68t57.5 171t-57.5 170.5t-155.5 67.5q-97 0 -153 -67.5t-56 -170.5t56 -171t153 -68z" />
    <glyph glyph-name="rsuperior" unicode="&#xf6f1;" horiz-adv-x="491" 
d="M242 668h-119v643h119v-99q42 50 99 81.5t118 31.5v-108l-41 2q-46 0 -100 -29.5t-76 -65.5v-456z" />
    <glyph glyph-name="ssuperior" unicode="&#xf6f2;" horiz-adv-x="675" 
d="M328 651q-165 0 -271 109l54 74q36 -41 95.5 -69t123.5 -28q71 0 111 29.5t40 77.5q0 32 -22.5 53.5t-58.5 32.5t-80 20.5t-87.5 22.5t-79.5 31.5t-58.5 53.5t-22.5 85q0 76 68 130t184 54q162 0 249 -94l-51 -72q-30 36 -82 58t-112 22q-65 0 -103.5 -28t-38.5 -70
q0 -33 30.5 -54t76 -29t98.5 -21.5t98.5 -30.5t76 -57t30.5 -99q0 -87 -70.5 -144t-197.5 -57z" />
    <glyph glyph-name="tsuperior" unicode="&#xf6f3;" horiz-adv-x="421" 
d="M285 651q-76 0 -117 41.5t-41 118.5v414h-109v86h109v176h119v-176h133v-86h-133v-398q0 -36 16.5 -57.5t46.5 -21.5q49 0 68 26q6 -15 18 -43.5t15 -36.5q-46 -43 -125 -43z" />
    <glyph glyph-name="Lslash.smcp" unicode="&#xf6f9;" horiz-adv-x="985" 
d="M20 350v148l181 104v524h161v-432l193 113v-148l-193 -112v-406h545v-141h-706v455z" />
    <glyph glyph-name="OE.smcp" unicode="&#xf6fa;" horiz-adv-x="1951" 
d="M1847 0h-784v203q-65 -113 -170 -170.5t-238 -57.5q-165 0 -293.5 77.5t-197 211t-68.5 299.5t68.5 299.5t197 211t293.5 77.5q133 0 238 -56.5t170 -168.5v200h784v-141h-624v-338h612v-141h-612v-365h624v-141zM1063 397v336q-47 140 -150 208.5t-233 68.5
q-189 0 -304.5 -126t-115.5 -321q0 -194 115.5 -320t304.5 -126q133 0 234.5 69t148.5 211z" />
    <glyph glyph-name="Scaron.smcp" unicode="&#xf6fd;" horiz-adv-x="1032" 
d="M516 -25q-143 0 -260 49t-190 128l86 120q63 -68 159 -112.5t209 -44.5q139 0 207 55t68 137q0 51 -30 88t-78.5 57.5t-111 39t-127 32t-127 38t-111 55.5t-78.5 86t-30 128q0 139 117 229.5t291 90.5q263 0 422 -162l-84 -112q-62 67 -152 101t-186 34q-106 0 -174 -50
t-68 -128q0 -39 23.5 -68t63.5 -47.5t92 -33t109 -29t114 -31t109 -42.5t92 -60.5t63.5 -88t23.5 -121.5q0 -150 -112.5 -244t-329.5 -94zM596 1241h-147l-201 295h104l170 -217l164 217h105z" />
    <glyph glyph-name="Zcaron.smcp" unicode="&#xf6ff;" horiz-adv-x="1056" 
d="M977 0h-895v121l666 864h-666v141h881v-120l-666 -865h680v-141zM600 1241h-147l-201 295h104l170 -217l164 217h105z" />
    <glyph glyph-name="exclam.smcp" unicode="&#xf721;" horiz-adv-x="376" 
d="M276 1126l-28 -786h-119l-29 786h176zM301 92q0 -46 -33.5 -79t-79.5 -33t-79 33t-33 79q0 45 33.5 79t78.5 34t79 -34t34 -79z" />
    <glyph glyph-name="dollar.onum" unicode="&#xf724;" horiz-adv-x="1032" 
d="M461 -152v129q-126 9 -228.5 56t-166.5 119l86 120q53 -58 134 -101t175 -54v403q-45 11 -76.5 20.5t-72 24.5t-68 30.5t-56.5 39.5t-46.5 51t-28.5 64t-11 81q0 128 101 216t258 102v137h121v-139q212 -20 350 -158l-84 -112q-103 109 -266 129v-357q46 -12 79 -21.5
t75 -26t71 -33.5t59.5 -43t49 -55.5t30.5 -69.5t12 -87q0 -138 -95.5 -230t-280.5 -106v-129h-121zM795 307q0 72 -54.5 111.5t-158.5 70.5v-372q108 13 160.5 65t52.5 125zM268 834q0 -59 49 -93t144 -61v328q-87 -11 -140 -58t-53 -116z" />
    <glyph glyph-name="ampersand.smcp" unicode="&#xf726;" horiz-adv-x="1138" 
d="M1098 0h-195q-7 6 -131 119q-152 -142 -344 -142q-164 0 -268.5 86t-104.5 234q0 63 20 116t58.5 93t80 69t99.5 58q-88 141 -88 250q0 116 87 192t216 76q117 0 195 -59t78 -168q0 -36 -9.5 -68.5t-23.5 -57.5t-39 -50t-47 -42t-57.5 -37.5t-60 -33t-64.5 -31.5
q51 -63 135 -151q74 -82 139 -148q81 122 123 256l121 -49q-72 -175 -158 -293q54 -51 238 -219zM442 90q130 0 244 111q-106 106 -158 166q-82 88 -151 176q-82 -47 -127 -102.5t-45 -133.5q0 -94 66.5 -155.5t170.5 -61.5zM367 881q0 -80 71 -189q114 52 173 101.5
t59 124.5q0 60 -38 92t-100 32q-72 0 -118.5 -46t-46.5 -115z" />
    <glyph glyph-name="zero.onum" unicode="&#xf730;" horiz-adv-x="1253" 
d="M1149 563q0 -90 -19 -174t-60 -159.5t-101 -132t-148 -89.5t-194 -33t-194 33t-148 89.5t-101.5 132t-60.5 159.5t-19 174q0 91 19 175t60.5 159.5t101.5 131.5t148 89t194 33t194 -33t148 -89t101 -131.5t60 -159.5t19 -175zM975 563q0 85 -20 161t-60.5 138.5
t-109.5 99.5t-158 37t-157.5 -37t-109 -99.5t-61 -138.5t-20.5 -161t20.5 -161t61 -138.5t109 -99.5t157.5 -37t157.5 37t109 99.5t61 138.5t20.5 161z" />
    <glyph glyph-name="one.onum" unicode="&#xf731;" horiz-adv-x="694" 
d="M535 0h-170v903l-220 -233l-102 104l342 352h150v-1126z" />
    <glyph glyph-name="two.onum" unicode="&#xf732;" horiz-adv-x="1183" 
d="M1006 0h-883v137q370 151 551.5 310.5t181.5 312.5q0 104 -80.5 171.5t-197.5 67.5q-119 0 -219 -46t-162 -126l-105 109q78 102 210 158.5t280 56.5q194 0 320 -101.5t126 -267.5q0 -179 -166 -348.5t-426 -281.5h570v-152z" />
    <glyph glyph-name="three.onum" unicode="&#xf733;" horiz-adv-x="1132" 
d="M537 -264q-165 0 -292 63t-194 162l101 107q62 -82 162 -131.5t218 -49.5q149 0 234.5 69t85.5 187q0 123 -91 182.5t-249 59.5q-121 0 -141 -2v156q23 -2 141 -2q139 0 228 56.5t89 168.5q0 110 -87 171.5t-218 61.5q-110 0 -196.5 -41t-163.5 -125l-94 107
q78 97 197.5 154t271.5 57q202 0 331 -97.5t129 -265.5q0 -71 -27.5 -130t-71.5 -96.5t-93 -60t-100 -30.5q49 -5 101.5 -27.5t101.5 -62t80.5 -105t31.5 -143.5q0 -173 -131.5 -283t-353.5 -110z" />
    <glyph glyph-name="four.onum" unicode="&#xf734;" horiz-adv-x="1142" 
d="M1077 113h-192v-353h-170v353h-649v141l585 872h234v-864h192v-149zM715 262v707l-479 -707h479z" />
    <glyph glyph-name="five.onum" unicode="&#xf735;" horiz-adv-x="1208" 
d="M616 -264q-316 0 -481 219l105 115q141 -183 376 -183q138 0 227 83.5t89 209.5q0 134 -87.5 214.5t-226.5 80.5q-182 0 -315 -127l-125 43v735h836v-151h-666v-475q55 54 139 88.5t181 34.5q117 0 214.5 -49t159.5 -150.5t62 -237.5q0 -203 -139 -326.5t-349 -123.5z
" />
    <glyph glyph-name="six.onum" unicode="&#xf736;" horiz-adv-x="1210" 
d="M633 -25q-112 0 -202 38t-150 103t-100.5 156t-58.5 193t-18 217q0 113 20.5 215t65 192t109 155.5t158 103.5t205.5 38q236 0 376 -163l-86 -127q-58 68 -124.5 103.5t-165.5 35.5q-77 0 -142 -30t-109.5 -81.5t-75 -120.5t-45 -146t-14.5 -159v-53q51 81 158.5 147
t229.5 66q93 0 173.5 -27.5t141.5 -80.5t96 -137.5t35 -190.5q0 -89 -33.5 -169.5t-93.5 -142.5t-151 -98.5t-199 -36.5zM625 127q76 0 137.5 26.5t98.5 69.5t57 93t20 100q0 144 -87.5 219.5t-225.5 75.5q-101 0 -193 -56t-149 -147q4 -54 17.5 -105t40.5 -102t64.5 -89
t94 -61.5t125.5 -23.5z" />
    <glyph glyph-name="seven.onum" unicode="&#xf737;" horiz-adv-x="1054" 
d="M436 -240h-188l551 1215h-736v151h932v-116z" />
    <glyph glyph-name="eight.onum" unicode="&#xf738;" horiz-adv-x="1191" 
d="M596 -25q-136 0 -246.5 43.5t-177 129t-66.5 198.5q0 129 94 223t232 136q-84 24 -149.5 64.5t-109.5 109t-44 153.5q0 89 40.5 158.5t108.5 111t149 63t169 21.5q87 0 168.5 -21.5t150 -63t109.5 -111t41 -158.5q0 -124 -86.5 -206.5t-218.5 -120.5
q138 -41 231.5 -135.5t93.5 -223.5q0 -168 -140.5 -269.5t-348.5 -101.5zM596 774q31 5 63.5 13.5t76.5 28t77 44t56.5 64t23.5 86.5q0 103 -85 164t-212 61q-128 0 -211.5 -61t-83.5 -164q0 -47 23.5 -86.5t56 -64t76.5 -44t76 -28t63 -13.5zM596 127q131 0 224 65.5
t93 172.5q0 51 -25 95t-62 72.5t-82.5 50.5t-82 32.5t-65.5 13.5q-29 -3 -65.5 -13.5t-82 -32.5t-82.5 -50.5t-62 -72.5t-25 -95q0 -107 92.5 -172.5t224.5 -65.5z" />
    <glyph glyph-name="nine.onum" unicode="&#xf739;" horiz-adv-x="1210" 
d="M551 -262q-232 0 -379 164l86 127q58 -68 126 -104t167 -36t175.5 46.5t121 125t66.5 171t22 194.5q0 35 -2 53q-51 -81 -158 -147t-227 -66q-126 0 -225.5 47t-161.5 147.5t-62 241.5q0 89 33.5 169.5t94 142.5t152 98.5t200.5 36.5q111 0 201 -38t150 -103t100.5 -156
t58.5 -193t18 -217q0 -113 -21 -215t-65.5 -192t-109 -155.5t-157 -103.5t-204.5 -38zM588 414q100 0 193 56t149 148q-5 54 -18.5 104.5t-41 101.5t-65 88.5t-94 61t-125.5 23.5q-75 0 -136.5 -26.5t-99.5 -69t-58 -92t-20 -100.5q0 -144 88.5 -219.5t227.5 -75.5z" />
    <glyph glyph-name="question.smcp" unicode="&#xf73f;" horiz-adv-x="811" 
d="M764 889q0 -69 -35.5 -124.5t-86 -91t-101 -67t-86 -68t-35.5 -77.5q0 -45 53 -82l-117 -49q-73 57 -73 135q0 57 33.5 103.5t80.5 78t94.5 61t81 68.5t33.5 86q0 68 -55.5 110t-153.5 42q-180 0 -295 -142l-82 97q68 85 167.5 132.5t222.5 47.5q161 0 257.5 -75
t96.5 -185zM504 92q0 -46 -33.5 -79t-79.5 -33t-79 33t-33 79t33 79.5t79 33.5t79.5 -33.5t33.5 -79.5z" />
    <glyph glyph-name="A.smcp" unicode="&#xf761;" horiz-adv-x="1171" 
d="M492 1126h190l475 -1126h-178l-105 246h-575l-104 -246h-181zM825 387l-237 571l-240 -571h477z" />
    <glyph glyph-name="B.smcp" unicode="&#xf762;" horiz-adv-x="1134" 
d="M696 0h-542v1126h530q155 0 245.5 -79.5t90.5 -208.5q0 -96 -55.5 -164.5t-137.5 -91.5q92 -22 154.5 -101t62.5 -176q0 -138 -93 -221.5t-255 -83.5zM674 141q95 0 149 48.5t54 132.5q0 77 -54 130.5t-149 53.5h-359v-365h359zM666 647q89 0 138.5 47.5t49.5 120.5
q0 78 -49.5 124t-138.5 46h-351v-338h351z" />
    <glyph glyph-name="C.smcp" unicode="&#xf763;" horiz-adv-x="1191" 
d="M698 -25q-170 0 -307 74t-216 209.5t-79 306.5q0 170 79 304.5t216 208t307 73.5q145 0 258.5 -61.5t188.5 -169.5l-129 -72q-52 74 -136.5 118t-181.5 44q-187 0 -312.5 -125.5t-125.5 -319.5t125.5 -321t312.5 -127q97 0 183.5 44.5t134.5 117.5l131 -72
q-169 -232 -449 -232z" />
    <glyph glyph-name="D.smcp" unicode="&#xf764;" horiz-adv-x="1259" 
d="M563 0h-409v1126h409q271 0 435.5 -160.5t164.5 -404.5q0 -119 -42.5 -222t-119 -178t-189.5 -118t-249 -43zM563 141q203 0 318.5 119.5t115.5 300.5q0 185 -114 304.5t-320 119.5h-248v-844h248z" />
    <glyph glyph-name="E.smcp" unicode="&#xf765;" horiz-adv-x="1042" 
d="M936 0h-782v1126h782v-141h-621v-338h611v-141h-611v-365h621v-141z" />
    <glyph glyph-name="F.smcp" unicode="&#xf766;" horiz-adv-x="1005" 
d="M315 0h-161v1126h782v-141h-621v-338h611v-141h-611v-506z" />
    <glyph glyph-name="G.smcp" unicode="&#xf767;" horiz-adv-x="1282" 
d="M698 -25q-167 0 -304 73t-217.5 208.5t-80.5 306.5t80.5 306.5t217.5 208.5t304 73q275 0 453 -207l-125 -84q-57 68 -143 108t-185 40q-187 0 -311.5 -125.5t-124.5 -319.5q0 -193 124.5 -319.5t311.5 -126.5q94 0 172.5 34t128.5 82v220h-348v135h508v-416
q-86 -92 -205 -144.5t-256 -52.5z" />
    <glyph glyph-name="H.smcp" unicode="&#xf768;" horiz-adv-x="1300" 
d="M1147 0h-158v508h-674v-508h-161v1126h161v-477h674v477h158v-1126z" />
    <glyph glyph-name="I.smcp" unicode="&#xf769;" horiz-adv-x="468" 
d="M315 0h-161v1126h161v-1126z" />
    <glyph glyph-name="J.smcp" unicode="&#xf76a;" horiz-adv-x="864" 
d="M324 -25q-192 0 -308 140l78 116q89 -114 219 -114q108 0 172 63.5t64 167.5v778h160v-790q0 -177 -106.5 -269t-278.5 -92z" />
    <glyph glyph-name="K.smcp" unicode="&#xf76b;" horiz-adv-x="1093" 
d="M1065 0h-199l-442 498l-109 -119v-379h-161v1126h161v-563l508 563h201l-496 -534z" />
    <glyph glyph-name="L.smcp" unicode="&#xf76c;" horiz-adv-x="937" 
d="M860 0h-706v1126h161v-985h545v-141z" />
    <glyph glyph-name="M.smcp" unicode="&#xf76d;" horiz-adv-x="1472" 
d="M1319 0h-160v909l-387 -909h-70l-387 909v-909h-161v1126h219l362 -858l365 858h219v-1126z" />
    <glyph glyph-name="N.smcp" unicode="&#xf76e;" horiz-adv-x="1294" 
d="M1141 0h-162l-666 877v-877h-159v1126h168l659 -860v860h160v-1126z" />
    <glyph glyph-name="O.smcp" unicode="&#xf76f;" horiz-adv-x="1355" 
d="M678 -25q-129 0 -238.5 45.5t-184.5 124t-117 186.5t-42 232t42 232t117 186.5t184.5 124t238.5 45.5t238.5 -45.5t184.5 -124t117 -186.5t42 -232t-42 -232t-117 -186.5t-184.5 -124t-238.5 -45.5zM678 117q188 0 303 126t115 320q0 195 -115 321t-303 126t-303 -126
t-115 -321q0 -194 115 -320t303 -126z" />
    </font>
</defs>
</svg>
